The Silent Age Repack Free Download

383 views

The Silent Age Repack Free Download

The Silent Age Repack Free Download

AboutFeaturesScreenshotsTrailerSystem Requirements.NFO

Basic Information

The Silent Age Repack Free Download PC Game setup for Windows operating system (OS). The Silent Age Repack is a Adventure, Casual, and Indie game. The Silent Age Repack is a PC game that developed and published by House On Fire and Meridian4. The Silent Age Repack game was released on 21, May 2015. The size of this game is 226 MB (237,521,239 bytes) It was released for all platforms, but we are only offering this game to play only on PC/Windows. It supports single player mode only.

Description

Lose yourself in The Silent Age, the thrilling point-and-click adventure with over seven million mobile downloads, completely revamped and updated for PC.

Help Joe as he travels between the groovy present of 1972 and the apocalyptic future of 2012 to discover the truth behind humankind’s extinction—a quest entrusted to him by a dying man from the future. Use your portable time travel device to solve puzzles that bring you closer to answers and saving humanity.

Winner of the 2013 Casual Connect Indie Prize and applauded for its deep story, clever puzzles, and radically simple navigation and art style, The Silent Age is an unforgettable experience. Can you, a simple janitor and literally, “the average Joe,” save humankind?

Game Features:
  • Thrilling adventure with a deep story that captivates from beginning to end.
  • Complex characters, each with their own personality and agenda.
  • Clever puzzles requiring time travel and specific items to solve.
  • A seamless interface which makes you feel like you’re actually there.
  • 10 chapters with unique locations, characters and puzzles.

Repack Features:
  • Based on ALiAS release: The.Silent.Age (346 MB).
  • MD5 Perfect: all files are identical to originals after installation.
  • NOTHING ripped, NOTHING re-encoded, pure only repack.
  • Significantly smaller archive size (compressed from (346 MB) to 226 MB (237,521,239 bytes))
  • Installation takes 4-5 minutes (depending on your PC performance).
  • Work perfectly.
  • Repack by RepackGames.Net.

The Silent Age Repack Free Download

Snapshot of The Silent Age Repack

Image of The Silent Age Repack

This game system requirements are described in the content below. With these specifications, the game will run smoothly and graphics would be crystal clear. A machine (CPU) better than these specifications is most beneficiary.

MINIMUM:
  • OS: Windows XP Service Pack 3
  • Processor: 2.4 GHz Intel Core 2 Duo
  • Memory: 2 GB RAM
  • Graphics: 256 MB NVIDIA GeForce 8600 GTS
  • DirectX: Version 9.0c
  • Network: Broadband Internet connection
  • Hard Drive: 4 GB available space
  • Sound Card: DirectX Compatible Sound Card
  • Additional Notes: Mouse

RECOMMENDED:
  • OS: Windows XP Service Pack 3 or newer
  • Processor: 2.4 GHz Intel i3 or higher
  • Memory: 4 GB RAM
  • Graphics: 2048 MB NVIDIA GeForce GT 750M
  • DirectX: Version 9.0
  • Network: Broadband Internet connection
  • Hard Drive: 4 GB available space
  • Sound Card: DirectX Compatible Sound Card
  • Additional Notes: Mouse

*******************************************************************************

The Silent Age Repack Free Download

Download Free Repack Games – RepackGames.Net

*******************************************************************************
The Silent Age Repack
*******************************************************************************

The Silent Age Repack Free Download

——————————————————————————-
General Information
——————————————————————————-

The Silent Age Repack Free Download

 

General

Complete name : D:\Highly Compressed Games\RepackGames.Net – The Silent Age\The Silent Age\steam_api.dll
Format : MZ
Format profile : DLL / Intel i386
File size : 1.26 MiB
Encoded date : UTC 2015-05-08 10:04:09

 

The Silent Age Repack Free Download

 

General

Complete name : D:\Highly Compressed Games\RepackGames.Net – The Silent Age\The Silent Age\steam_api.ini
File size : 2.34 KiB

 

The Silent Age Repack Free Download

 

General

Complete name : D:\Highly Compressed Games\RepackGames.Net – The Silent Age\The Silent Age\TheSilentAge.exe
Format : MZ
Format profile : Executable / Intel i386
File size : 11.1 MiB
Encoded date : UTC 2014-12-05 12:02:35

 

The Silent Age Repack Free Download

 

General

Complete name : D:\Highly Compressed Games\RepackGames.Net – The Silent Age\The Silent Age\unins000.dat
File size : 32.0 KiB

 

The Silent Age Repack Free Download

 

General

Complete name : D:\Highly Compressed Games\RepackGames.Net – The Silent Age\The Silent Age\unins000.exe
Format : MZ
Format profile : Executable / Intel i386
File size : 1.67 MiB
Encoded date : UTC 2013-10-13 08:19:33

 

The Silent Age Repack Free Download

 

General

Complete name : D:\Highly Compressed Games\RepackGames.Net – The Silent Age\The Silent Age\TheSilentAge_Data\level0
File size : 11.7 KiB

 

 

 

General

Complete name : D:\Highly Compressed Games\RepackGames.Net – The Silent Age\The Silent Age\TheSilentAge_Data\level1
File size : 5.52 KiB

 

The Silent Age Repack Free Download

 

General

Complete name : D:\Highly Compressed Games\RepackGames.Net – The Silent Age\The Silent Age\TheSilentAge_Data\level10
File size : 16.8 KiB

 

The Silent Age Repack Free Download

 

General

Complete name : D:\Highly Compressed Games\RepackGames.Net – The Silent Age\The Silent Age\TheSilentAge_Data\level100
File size : 11.9 KiB

 

The Silent Age Repack Free Download

 

General

Complete name : D:\Highly Compressed Games\RepackGames.Net – The Silent Age\The Silent Age\TheSilentAge_Data\level101
File size : 12.3 KiB

 

The Silent Age Repack Free Download

 

General

Complete name : D:\Highly Compressed Games\RepackGames.Net – The Silent Age\The Silent Age\TheSilentAge_Data\level102
File size : 16.6 KiB

 

The Silent Age Repack Free Download

 

General

Complete name : D:\Highly Compressed Games\RepackGames.Net – The Silent Age\The Silent Age\TheSilentAge_Data\level103
File size : 11.5 KiB

 

The Silent Age Repack Free Download

 

General

Complete name : D:\Highly Compressed Games\RepackGames.Net – The Silent Age\The Silent Age\TheSilentAge_Data\level11
File size : 8.06 KiB

 

The Silent Age Repack Free Download

 

General

Complete name : D:\Highly Compressed Games\RepackGames.Net – The Silent Age\The Silent Age\TheSilentAge_Data\level12
File size : 8.77 KiB

 

The Silent Age Repack Free Download

 

General

Complete name : D:\Highly Compressed Games\RepackGames.Net – The Silent Age\The Silent Age\TheSilentAge_Data\level13
File size : 7.09 KiB

 

The Silent Age Repack Free Download

 

General

Complete name : D:\Highly Compressed Games\RepackGames.Net – The Silent Age\The Silent Age\TheSilentAge_Data\level14
File size : 7.09 KiB

 

 

 

General

Complete name : D:\Highly Compressed Games\RepackGames.Net – The Silent Age\The Silent Age\TheSilentAge_Data\level15
File size : 10.8 KiB

 

The Silent Age Repack Free Download

 

General

Complete name : D:\Highly Compressed Games\RepackGames.Net – The Silent Age\The Silent Age\TheSilentAge_Data\level16
File size : 72.4 KiB

 

The Silent Age Repack Free Download

 

General

Complete name : D:\Highly Compressed Games\RepackGames.Net – The Silent Age\The Silent Age\TheSilentAge_Data\level17
File size : 19.3 KiB

 

The Silent Age Repack Free Download

 

General

Complete name : D:\Highly Compressed Games\RepackGames.Net – The Silent Age\The Silent Age\TheSilentAge_Data\level18
File size : 38.6 KiB

 

The Silent Age Repack Free Download

 

General

Complete name : D:\Highly Compressed Games\RepackGames.Net – The Silent Age\The Silent Age\TheSilentAge_Data\level19
File size : 27.6 KiB

 

The Silent Age Repack Free Download

 

General

Complete name : D:\Highly Compressed Games\RepackGames.Net – The Silent Age\The Silent Age\TheSilentAge_Data\level2
File size : 13.1 KiB

 

The Silent Age Repack Free Download

 

General

Complete name : D:\Highly Compressed Games\RepackGames.Net – The Silent Age\The Silent Age\TheSilentAge_Data\level20
File size : 33.3 KiB

 

The Silent Age Repack Free Download

 

General

Complete name : D:\Highly Compressed Games\RepackGames.Net – The Silent Age\The Silent Age\TheSilentAge_Data\level21
File size : 66.8 KiB

 

The Silent Age Repack Free Download

 

General

Complete name : D:\Highly Compressed Games\RepackGames.Net – The Silent Age\The Silent Age\TheSilentAge_Data\level22
File size : 19.1 KiB

 

The Silent Age Repack Free Download

 

General

Complete name : D:\Highly Compressed Games\RepackGames.Net – The Silent Age\The Silent Age\TheSilentAge_Data\level23
File size : 14.2 KiB

 

The Silent Age Repack Free Download

 

General

Complete name : D:\Highly Compressed Games\RepackGames.Net – The Silent Age\The Silent Age\TheSilentAge_Data\level24
File size : 29.7 KiB

 

The Silent Age Repack Free Download

 

General

Complete name : D:\Highly Compressed Games\RepackGames.Net – The Silent Age\The Silent Age\TheSilentAge_Data\level25
File size : 25.2 KiB

 

The Silent Age Repack Free Download

 

General

Complete name : D:\Highly Compressed Games\RepackGames.Net – The Silent Age\The Silent Age\TheSilentAge_Data\level26
File size : 45.0 KiB

 

The Silent Age Repack Free Download

 

General

Complete name : D:\Highly Compressed Games\RepackGames.Net – The Silent Age\The Silent Age\TheSilentAge_Data\level27
File size : 92.4 KiB

 

 

 

General

Complete name : D:\Highly Compressed Games\RepackGames.Net – The Silent Age\The Silent Age\TheSilentAge_Data\level28
File size : 22.1 KiB

 

The Silent Age Repack Free Download

 

General

Complete name : D:\Highly Compressed Games\RepackGames.Net – The Silent Age\The Silent Age\TheSilentAge_Data\level29
File size : 24.3 KiB

 

 

 

General

Complete name : D:\Highly Compressed Games\RepackGames.Net – The Silent Age\The Silent Age\TheSilentAge_Data\level3
File size : 41.0 KiB

 

The Silent Age Repack Free Download

 

General

Complete name : D:\Highly Compressed Games\RepackGames.Net – The Silent Age\The Silent Age\TheSilentAge_Data\level30
File size : 23.5 KiB

 

 

 

General

Complete name : D:\Highly Compressed Games\RepackGames.Net – The Silent Age\The Silent Age\TheSilentAge_Data\level31
File size : 19.8 KiB

 

 

 

General

Complete name : D:\Highly Compressed Games\RepackGames.Net – The Silent Age\The Silent Age\TheSilentAge_Data\level32
File size : 33.4 KiB

 

 

 

General

Complete name : D:\Highly Compressed Games\RepackGames.Net – The Silent Age\The Silent Age\TheSilentAge_Data\level33
File size : 20.2 KiB

 

 

 

General

Complete name : D:\Highly Compressed Games\RepackGames.Net – The Silent Age\The Silent Age\TheSilentAge_Data\level34
File size : 17.4 KiB

 

 

 

General

Complete name : D:\Highly Compressed Games\RepackGames.Net – The Silent Age\The Silent Age\TheSilentAge_Data\level35
File size : 58.1 KiB

 

 

 

General

Complete name : D:\Highly Compressed Games\RepackGames.Net – The Silent Age\The Silent Age\TheSilentAge_Data\level36
File size : 35.6 KiB

 

 

 

General

Complete name : D:\Highly Compressed Games\RepackGames.Net – The Silent Age\The Silent Age\TheSilentAge_Data\level37
File size : 34.1 KiB

 

 

 

General

Complete name : D:\Highly Compressed Games\RepackGames.Net – The Silent Age\The Silent Age\TheSilentAge_Data\level38
File size : 38.6 KiB

 

 

 

General

Complete name : D:\Highly Compressed Games\RepackGames.Net – The Silent Age\The Silent Age\TheSilentAge_Data\level39
File size : 37.0 KiB

 

 

 

General

Complete name : D:\Highly Compressed Games\RepackGames.Net – The Silent Age\The Silent Age\TheSilentAge_Data\level4
File size : 12.6 KiB

 

 

 

General

Complete name : D:\Highly Compressed Games\RepackGames.Net – The Silent Age\The Silent Age\TheSilentAge_Data\level40
File size : 50.0 KiB

 

 

 

General

Complete name : D:\Highly Compressed Games\RepackGames.Net – The Silent Age\The Silent Age\TheSilentAge_Data\level41
File size : 133 KiB

 

 

 

General

Complete name : D:\Highly Compressed Games\RepackGames.Net – The Silent Age\The Silent Age\TheSilentAge_Data\level42
File size : 57.5 KiB

 

 

 

General

Complete name : D:\Highly Compressed Games\RepackGames.Net – The Silent Age\The Silent Age\TheSilentAge_Data\level43
File size : 129 KiB

 

 

 

General

Complete name : D:\Highly Compressed Games\RepackGames.Net – The Silent Age\The Silent Age\TheSilentAge_Data\level44
File size : 62.8 KiB

 

 

 

General

Complete name : D:\Highly Compressed Games\RepackGames.Net – The Silent Age\The Silent Age\TheSilentAge_Data\level45
File size : 28.9 KiB

 

 

 

General

Complete name : D:\Highly Compressed Games\RepackGames.Net – The Silent Age\The Silent Age\TheSilentAge_Data\level46
File size : 27.9 KiB

 

 

 

General

Complete name : D:\Highly Compressed Games\RepackGames.Net – The Silent Age\The Silent Age\TheSilentAge_Data\level47
File size : 27.8 KiB

 

 

 

General

Complete name : D:\Highly Compressed Games\RepackGames.Net – The Silent Age\The Silent Age\TheSilentAge_Data\level48
File size : 37.2 KiB

 

 

 

General

Complete name : D:\Highly Compressed Games\RepackGames.Net – The Silent Age\The Silent Age\TheSilentAge_Data\level49
File size : 25.6 KiB

 

 

 

General

Complete name : D:\Highly Compressed Games\RepackGames.Net – The Silent Age\The Silent Age\TheSilentAge_Data\level5
File size : 15.3 KiB

 

 

 

General

Complete name : D:\Highly Compressed Games\RepackGames.Net – The Silent Age\The Silent Age\TheSilentAge_Data\level50
File size : 22.6 KiB

 

 

 

General

Complete name : D:\Highly Compressed Games\RepackGames.Net – The Silent Age\The Silent Age\TheSilentAge_Data\level51
File size : 12.2 KiB

 

 

 

General

Complete name : D:\Highly Compressed Games\RepackGames.Net – The Silent Age\The Silent Age\TheSilentAge_Data\level52
File size : 51.1 KiB

 

 

 

General

Complete name : D:\Highly Compressed Games\RepackGames.Net – The Silent Age\The Silent Age\TheSilentAge_Data\level53
File size : 37.5 KiB

 

 

 

General

Complete name : D:\Highly Compressed Games\RepackGames.Net – The Silent Age\The Silent Age\TheSilentAge_Data\level54
File size : 52.4 KiB

 

 

 

General

Complete name : D:\Highly Compressed Games\RepackGames.Net – The Silent Age\The Silent Age\TheSilentAge_Data\level55
File size : 46.8 KiB

 

 

 

General

Complete name : D:\Highly Compressed Games\RepackGames.Net – The Silent Age\The Silent Age\TheSilentAge_Data\level56
File size : 41.2 KiB

 

 

 

General

Complete name : D:\Highly Compressed Games\RepackGames.Net – The Silent Age\The Silent Age\TheSilentAge_Data\level57
File size : 44.8 KiB

 

 

 

General

Complete name : D:\Highly Compressed Games\RepackGames.Net – The Silent Age\The Silent Age\TheSilentAge_Data\level58
File size : 50.3 KiB

 

 

 

General

Complete name : D:\Highly Compressed Games\RepackGames.Net – The Silent Age\The Silent Age\TheSilentAge_Data\level59
File size : 76.5 KiB

 

 

 

General

Complete name : D:\Highly Compressed Games\RepackGames.Net – The Silent Age\The Silent Age\TheSilentAge_Data\level6
File size : 15.8 KiB

 

 

 

General

Complete name : D:\Highly Compressed Games\RepackGames.Net – The Silent Age\The Silent Age\TheSilentAge_Data\level60
File size : 40.6 KiB

 

 

 

General

Complete name : D:\Highly Compressed Games\RepackGames.Net – The Silent Age\The Silent Age\TheSilentAge_Data\level61
File size : 38.6 KiB

 

 

 

General

Complete name : D:\Highly Compressed Games\RepackGames.Net – The Silent Age\The Silent Age\TheSilentAge_Data\level62
File size : 39.4 KiB

 

 

 

General

Complete name : D:\Highly Compressed Games\RepackGames.Net – The Silent Age\The Silent Age\TheSilentAge_Data\level63
File size : 46.4 KiB

 

 

 

General

Complete name : D:\Highly Compressed Games\RepackGames.Net – The Silent Age\The Silent Age\TheSilentAge_Data\level64
File size : 15.1 KiB

 

 

 

General

Complete name : D:\Highly Compressed Games\RepackGames.Net – The Silent Age\The Silent Age\TheSilentAge_Data\level65
File size : 20.2 KiB

 

 

 

General

Complete name : D:\Highly Compressed Games\RepackGames.Net – The Silent Age\The Silent Age\TheSilentAge_Data\level66
File size : 8.36 KiB

 

 

 

General

Complete name : D:\Highly Compressed Games\RepackGames.Net – The Silent Age\The Silent Age\TheSilentAge_Data\level67
File size : 64.0 KiB

 

 

 

General

Complete name : D:\Highly Compressed Games\RepackGames.Net – The Silent Age\The Silent Age\TheSilentAge_Data\level68
File size : 119 KiB

 

 

 

General

Complete name : D:\Highly Compressed Games\RepackGames.Net – The Silent Age\The Silent Age\TheSilentAge_Data\level69
File size : 185 KiB

 

 

 

General

Complete name : D:\Highly Compressed Games\RepackGames.Net – The Silent Age\The Silent Age\TheSilentAge_Data\level7
File size : 12.5 KiB

 

 

 

General

Complete name : D:\Highly Compressed Games\RepackGames.Net – The Silent Age\The Silent Age\TheSilentAge_Data\level70
File size : 128 KiB

 

 

 

General

Complete name : D:\Highly Compressed Games\RepackGames.Net – The Silent Age\The Silent Age\TheSilentAge_Data\level71
File size : 158 KiB

 

 

 

General

Complete name : D:\Highly Compressed Games\RepackGames.Net – The Silent Age\The Silent Age\TheSilentAge_Data\level72
File size : 31.6 KiB

 

 

 

General

Complete name : D:\Highly Compressed Games\RepackGames.Net – The Silent Age\The Silent Age\TheSilentAge_Data\level73
File size : 32.8 KiB

 

 

 

General

Complete name : D:\Highly Compressed Games\RepackGames.Net – The Silent Age\The Silent Age\TheSilentAge_Data\level74
File size : 67.3 KiB

 

 

 

General

Complete name : D:\Highly Compressed Games\RepackGames.Net – The Silent Age\The Silent Age\TheSilentAge_Data\level75
File size : 49.8 KiB

 

 

 

General

Complete name : D:\Highly Compressed Games\RepackGames.Net – The Silent Age\The Silent Age\TheSilentAge_Data\level76
File size : 77.3 KiB

 

 

 

General

Complete name : D:\Highly Compressed Games\RepackGames.Net – The Silent Age\The Silent Age\TheSilentAge_Data\level77
File size : 134 KiB

 

 

 

General

Complete name : D:\Highly Compressed Games\RepackGames.Net – The Silent Age\The Silent Age\TheSilentAge_Data\level78
File size : 101 KiB

 

 

 

General

Complete name : D:\Highly Compressed Games\RepackGames.Net – The Silent Age\The Silent Age\TheSilentAge_Data\level79
File size : 67.3 KiB

 

 

 

General

Complete name : D:\Highly Compressed Games\RepackGames.Net – The Silent Age\The Silent Age\TheSilentAge_Data\level8
File size : 16.1 KiB

 

 

 

General

Complete name : D:\Highly Compressed Games\RepackGames.Net – The Silent Age\The Silent Age\TheSilentAge_Data\level80
File size : 77.0 KiB

 

 

 

General

Complete name : D:\Highly Compressed Games\RepackGames.Net – The Silent Age\The Silent Age\TheSilentAge_Data\level81
File size : 85.6 KiB

 

 

 

General

Complete name : D:\Highly Compressed Games\RepackGames.Net – The Silent Age\The Silent Age\TheSilentAge_Data\level82
File size : 7.48 KiB

 

 

 

General

Complete name : D:\Highly Compressed Games\RepackGames.Net – The Silent Age\The Silent Age\TheSilentAge_Data\level83
File size : 8.18 KiB

 

 

 

General

Complete name : D:\Highly Compressed Games\RepackGames.Net – The Silent Age\The Silent Age\TheSilentAge_Data\level84
File size : 29.8 KiB

 

 

 

General

Complete name : D:\Highly Compressed Games\RepackGames.Net – The Silent Age\The Silent Age\TheSilentAge_Data\level85
File size : 67.6 KiB

 

 

 

General

Complete name : D:\Highly Compressed Games\RepackGames.Net – The Silent Age\The Silent Age\TheSilentAge_Data\level86
File size : 70.0 KiB

 

 

 

General

Complete name : D:\Highly Compressed Games\RepackGames.Net – The Silent Age\The Silent Age\TheSilentAge_Data\level87
File size : 58.0 KiB

 

 

 

General

Complete name : D:\Highly Compressed Games\RepackGames.Net – The Silent Age\The Silent Age\TheSilentAge_Data\level88
File size : 38.0 KiB

 

 

 

General

Complete name : D:\Highly Compressed Games\RepackGames.Net – The Silent Age\The Silent Age\TheSilentAge_Data\level89
File size : 15.7 KiB

 

 

 

General

Complete name : D:\Highly Compressed Games\RepackGames.Net – The Silent Age\The Silent Age\TheSilentAge_Data\level9
File size : 20.9 KiB

 

 

 

General

Complete name : D:\Highly Compressed Games\RepackGames.Net – The Silent Age\The Silent Age\TheSilentAge_Data\level90
File size : 27.7 KiB

 

 

 

General

Complete name : D:\Highly Compressed Games\RepackGames.Net – The Silent Age\The Silent Age\TheSilentAge_Data\level91
File size : 55.9 KiB

 

 

 

General

Complete name : D:\Highly Compressed Games\RepackGames.Net – The Silent Age\The Silent Age\TheSilentAge_Data\level92
File size : 26.7 KiB

 

 

 

General

Complete name : D:\Highly Compressed Games\RepackGames.Net – The Silent Age\The Silent Age\TheSilentAge_Data\level93
File size : 29.6 KiB

 

 

 

General

Complete name : D:\Highly Compressed Games\RepackGames.Net – The Silent Age\The Silent Age\TheSilentAge_Data\level94
File size : 54.3 KiB

 

 

 

General

Complete name : D:\Highly Compressed Games\RepackGames.Net – The Silent Age\The Silent Age\TheSilentAge_Data\level95
File size : 54.9 KiB

 

 

 

General

Complete name : D:\Highly Compressed Games\RepackGames.Net – The Silent Age\The Silent Age\TheSilentAge_Data\level96
File size : 88.8 KiB

 

 

 

General

Complete name : D:\Highly Compressed Games\RepackGames.Net – The Silent Age\The Silent Age\TheSilentAge_Data\level97
File size : 39.6 KiB

 

 

 

General

Complete name : D:\Highly Compressed Games\RepackGames.Net – The Silent Age\The Silent Age\TheSilentAge_Data\level98
File size : 11.7 KiB

 

 

 

General

Complete name : D:\Highly Compressed Games\RepackGames.Net – The Silent Age\The Silent Age\TheSilentAge_Data\level99
File size : 7.73 KiB

 

 

 

General

Complete name : D:\Highly Compressed Games\RepackGames.Net – The Silent Age\The Silent Age\TheSilentAge_Data\mainData
File size : 109 KiB

 

 

 

General

Complete name : D:\Highly Compressed Games\RepackGames.Net – The Silent Age\The Silent Age\TheSilentAge_Data\Managed\Assembly-CSharp-firstpass.dll
Format : MZ
Format profile : DLL / Intel i386
File size : 281 KiB
Encoded date : UTC 2015-05-29 12:10:26

 

 

 

General

Complete name : D:\Highly Compressed Games\RepackGames.Net – The Silent Age\The Silent Age\TheSilentAge_Data\Managed\Assembly-CSharp.dll
Format : MZ
Format profile : DLL / Intel i386
File size : 407 KiB
Encoded date : UTC 2015-05-29 12:10:28

 

 

 

General

Complete name : D:\Highly Compressed Games\RepackGames.Net – The Silent Age\The Silent Age\TheSilentAge_Data\Managed\Mono.Posix.dll
Format : MZ
Format profile : DLL / Intel i386
File size : 180 KiB
Encoded date : UTC 2014-12-05 10:13:05

 

 

 

General

Complete name : D:\Highly Compressed Games\RepackGames.Net – The Silent Age\The Silent Age\TheSilentAge_Data\Managed\Mono.Security.dll
Format : MZ
Format profile : DLL / Intel i386
File size : 288 KiB
Encoded date : UTC 2014-12-05 10:13:10

 

 

 

General

Complete name : D:\Highly Compressed Games\RepackGames.Net – The Silent Age\The Silent Age\TheSilentAge_Data\Managed\mscorlib.dll
Format : MZ
Format profile : DLL / Intel i386
File size : 2.47 MiB
Encoded date : UTC 2014-12-05 10:11:17

 

 

 

General

Complete name : D:\Highly Compressed Games\RepackGames.Net – The Silent Age\The Silent Age\TheSilentAge_Data\Managed\P31RestKit.dll
Format : MZ
Format profile : DLL / Intel i386
File size : 56.0 KiB
Encoded date : UTC 2015-02-01 18:22:24

 

 

 

General

Complete name : D:\Highly Compressed Games\RepackGames.Net – The Silent Age\The Silent Age\TheSilentAge_Data\Managed\Rewired_Core.dll
Format : MZ
Format profile : DLL / Intel i386
File size : 842 KiB
Encoded date : UTC 2015-02-01 05:36:08

 

 

 

General

Complete name : D:\Highly Compressed Games\RepackGames.Net – The Silent Age\The Silent Age\TheSilentAge_Data\Managed\SmartIAPLib.dll
Format : MZ
Format profile : DLL / Intel i386
File size : 22.5 KiB
Encoded date : UTC 2014-05-22 02:34:13

 

 

 

General

Complete name : D:\Highly Compressed Games\RepackGames.Net – The Silent Age\The Silent Age\TheSilentAge_Data\Managed\System.Configuration.dll
Format : MZ
Format profile : DLL / Intel i386
File size : 122 KiB
Encoded date : UTC 2014-12-05 10:13:19

 

 

 

General

Complete name : D:\Highly Compressed Games\RepackGames.Net – The Silent Age\The Silent Age\TheSilentAge_Data\Managed\System.Core.dll
Format : MZ
Format profile : DLL / Intel i386
File size : 293 KiB
Encoded date : UTC 2014-12-05 10:13:08

 

 

 

General

Complete name : D:\Highly Compressed Games\RepackGames.Net – The Silent Age\The Silent Age\TheSilentAge_Data\Managed\System.dll
Format : MZ
Format profile : DLL / Intel i386
File size : 1.60 MiB
Encoded date : UTC 2014-12-05 10:13:25

 

 

 

General

Complete name : D:\Highly Compressed Games\RepackGames.Net – The Silent Age\The Silent Age\TheSilentAge_Data\Managed\System.Security.dll
Format : MZ
Format profile : DLL / Intel i386
File size : 132 KiB
Encoded date : UTC 2014-12-05 10:13:17

 

 

 

General

Complete name : D:\Highly Compressed Games\RepackGames.Net – The Silent Age\The Silent Age\TheSilentAge_Data\Managed\System.Xml.dll
Format : MZ
Format profile : DLL / Intel i386
File size : 1.21 MiB
Encoded date : UTC 2014-12-05 10:13:01

 

 

 

General

Complete name : D:\Highly Compressed Games\RepackGames.Net – The Silent Age\The Silent Age\TheSilentAge_Data\Managed\UnityEngine.dll
Format : MZ
Format profile : DLL / Intel i386
File size : 597 KiB
Encoded date : UTC 2014-12-05 12:00:24

 

 

 

General

Complete name : D:\Highly Compressed Games\RepackGames.Net – The Silent Age\The Silent Age\TheSilentAge_Data\Managed\UnityEngine.UI.dll
Format : MZ
Format profile : DLL / Intel i386
File size : 167 KiB
Encoded date : UTC 2014-12-05 11:29:46

 

 

 

General

Complete name : D:\Highly Compressed Games\RepackGames.Net – The Silent Age\The Silent Age\TheSilentAge_Data\Managed\WinControls.dll
Format : MZ
Format profile : DLL / Intel i386
File size : 8.00 KiB
Encoded date : UTC 2014-06-16 20:17:28

 

 

 

General

Complete name : D:\Highly Compressed Games\RepackGames.Net – The Silent Age\The Silent Age\TheSilentAge_Data\Mono\etc\mono\1.0\DefaultWsdlHelpGenerator.aspx
File size : 56.8 KiB

 

 

 

General

Complete name : D:\Highly Compressed Games\RepackGames.Net – The Silent Age\The Silent Age\TheSilentAge_Data\Mono\etc\mono\1.0\machine.config
File size : 16.9 KiB

 

 

 

General

Complete name : D:\Highly Compressed Games\RepackGames.Net – The Silent Age\The Silent Age\TheSilentAge_Data\Mono\etc\mono\2.0\Browsers\Compat.browser
File size : 1.57 KiB

 

 

 

General

Complete name : D:\Highly Compressed Games\RepackGames.Net – The Silent Age\The Silent Age\TheSilentAge_Data\Mono\etc\mono\2.0\DefaultWsdlHelpGenerator.aspx
File size : 59.0 KiB

 

 

 

General

Complete name : D:\Highly Compressed Games\RepackGames.Net – The Silent Age\The Silent Age\TheSilentAge_Data\Mono\etc\mono\2.0\machine.config
File size : 27.0 KiB

 

 

 

General

Complete name : D:\Highly Compressed Games\RepackGames.Net – The Silent Age\The Silent Age\TheSilentAge_Data\Mono\etc\mono\2.0\settings.map
File size : 2.56 KiB

 

 

 

General

Complete name : D:\Highly Compressed Games\RepackGames.Net – The Silent Age\The Silent Age\TheSilentAge_Data\Mono\etc\mono\2.0\web.config
File size : 11.4 KiB

 

 

 

General

Complete name : D:\Highly Compressed Games\RepackGames.Net – The Silent Age\The Silent Age\TheSilentAge_Data\Mono\etc\mono\browscap.ini
File size : 305 KiB

 

 

 

General

Complete name : D:\Highly Compressed Games\RepackGames.Net – The Silent Age\The Silent Age\TheSilentAge_Data\Mono\etc\mono\config
File size : 1.65 KiB

 

 

 

General

Complete name : D:\Highly Compressed Games\RepackGames.Net – The Silent Age\The Silent Age\TheSilentAge_Data\Mono\etc\mono\mconfig\config.xml
File size : 25.2 KiB

 

 

 

General

Complete name : D:\Highly Compressed Games\RepackGames.Net – The Silent Age\The Silent Age\TheSilentAge_Data\Mono\mono.dll
Format : MZ
Format profile : DLL / Intel i386
File size : 2.00 MiB
Encoded date : UTC 2014-12-05 09:51:12

 

 

 

General

Complete name : D:\Highly Compressed Games\RepackGames.Net – The Silent Age\The Silent Age\TheSilentAge_Data\PlayerConnectionConfigFile
File size : 21.0 Bytes

 

 

 

General

Complete name : D:\Highly Compressed Games\RepackGames.Net – The Silent Age\The Silent Age\TheSilentAge_Data\Plugins\CSteamworks.dll
Format : MZ
Format profile : DLL / Intel i386
File size : 123 KiB
Encoded date : UTC 2015-05-06 18:45:37

 

 

 

General

Complete name : D:\Highly Compressed Games\RepackGames.Net – The Silent Age\The Silent Age\TheSilentAge_Data\Resources\unity default resources
File size : 1.52 MiB

 

 

 

General

Complete name : D:\Highly Compressed Games\RepackGames.Net – The Silent Age\The Silent Age\TheSilentAge_Data\Resources\unity_builtin_extra
File size : 364 KiB

 

 

 

General

Complete name : D:\Highly Compressed Games\RepackGames.Net – The Silent Age\The Silent Age\TheSilentAge_Data\resources.assets
File size : 244 MiB

 

 

 

General

Complete name : D:\Highly Compressed Games\RepackGames.Net – The Silent Age\The Silent Age\TheSilentAge_Data\resources.assets.resS
Format : OGG
File size : 63.5 MiB
Overall bit rate mode : Variable
DURATION : 9.15

 

Audio

ID : 252455344 (0xF0C29B0)
Format : Vorbis
Format settings, Floor : 1
Bit rate mode : Variable
Bit rate : 156 Kbps
Channel(s) : 1 channel
Sampling rate : 48.0 KHz
Compression mode : Lossy
Writing library : libVorbis (Schaufenugget) (20101101 (Schaufenugget))

 

 

 

General

Complete name : D:\Highly Compressed Games\RepackGames.Net – The Silent Age\The Silent Age\TheSilentAge_Data\ScreenSelector.bmp
Format : Bitmap
File size : 768 KiB

 

Image

Format : RGB
Width : 512 pixels
Height : 512 pixels
Color space : RGB
Bit depth : 24 bits

 

 

 

General

Complete name : D:\Highly Compressed Games\RepackGames.Net – The Silent Age\The Silent Age\TheSilentAge_Data\sharedassets0.assets
File size : 5.63 MiB

 

 

 

General

Complete name : D:\Highly Compressed Games\RepackGames.Net – The Silent Age\The Silent Age\TheSilentAge_Data\sharedassets1.assets
File size : 45.1 MiB

 

 

 

General

Complete name : D:\Highly Compressed Games\RepackGames.Net – The Silent Age\The Silent Age\TheSilentAge_Data\sharedassets1.assets.resS
Format : OGG
File size : 5.44 KiB
Duration : 30ms
Overall bit rate mode : Variable
Overall bit rate : 1 486 Kbps
DURATION : 0.03

 

Audio

ID : 1937699697 (0x737EF371)
Format : Vorbis
Format settings, Floor : 1
Duration : 30ms
Bit rate mode : Variable
Bit rate : 156 Kbps
Channel(s) : 1 channel
Sampling rate : 44.1 KHz
Compression mode : Lossy
Stream size : 585 Bytes (10%)
Writing library : libVorbis (Schaufenugget) (20101101 (Schaufenugget))

 

 

 

General

Complete name : D:\Highly Compressed Games\RepackGames.Net – The Silent Age\The Silent Age\TheSilentAge_Data\sharedassets10.assets
Format : MPEG-PS
File size : 14.0 MiB

 

 

 

General

Complete name : D:\Highly Compressed Games\RepackGames.Net – The Silent Age\The Silent Age\TheSilentAge_Data\sharedassets100.assets
File size : 4.15 KiB

 

 

 

General

Complete name : D:\Highly Compressed Games\RepackGames.Net – The Silent Age\The Silent Age\TheSilentAge_Data\sharedassets101.assets
File size : 54.0 MiB

 

 

 

General

Complete name : D:\Highly Compressed Games\RepackGames.Net – The Silent Age\The Silent Age\TheSilentAge_Data\sharedassets102.assets
File size : 4.57 KiB

 

 

 

General

Complete name : D:\Highly Compressed Games\RepackGames.Net – The Silent Age\The Silent Age\TheSilentAge_Data\sharedassets103.assets
File size : 9.00 MiB

 

 

 

General

Complete name : D:\Highly Compressed Games\RepackGames.Net – The Silent Age\The Silent Age\TheSilentAge_Data\sharedassets104.assets
File size : 7.49 KiB

 

 

 

General

Complete name : D:\Highly Compressed Games\RepackGames.Net – The Silent Age\The Silent Age\TheSilentAge_Data\sharedassets11.assets
File size : 26.8 MiB

 

 

 

General

Complete name : D:\Highly Compressed Games\RepackGames.Net – The Silent Age\The Silent Age\TheSilentAge_Data\sharedassets11.assets.resS
Format : OGG
File size : 86.9 KiB
Duration : 8s 0ms
Overall bit rate mode : Variable
Overall bit rate : 89.0 Kbps
DURATION : 8.00

 

Audio

ID : 48440470 (0x2E32496)
Format : Vorbis
Format settings, Floor : 1
Duration : 8s 0ms
Bit rate mode : Variable
Bit rate : 84.0 Kbps
Channel(s) : 2 channels
Sampling rate : 44.1 KHz
Compression mode : Lossy
Stream size : 82.0 KiB (94%)
Writing library : libVorbis (Schaufenugget) (20101101 (Schaufenugget))

 

 

 

General

Complete name : D:\Highly Compressed Games\RepackGames.Net – The Silent Age\The Silent Age\TheSilentAge_Data\sharedassets12.assets
File size : 5.54 MiB

 

 

 

General

Complete name : D:\Highly Compressed Games\RepackGames.Net – The Silent Age\The Silent Age\TheSilentAge_Data\sharedassets13.assets
File size : 2.20 MiB

 

 

 

General

Complete name : D:\Highly Compressed Games\RepackGames.Net – The Silent Age\The Silent Age\TheSilentAge_Data\sharedassets14.assets
File size : 16.8 MiB

 

 

 

General

Complete name : D:\Highly Compressed Games\RepackGames.Net – The Silent Age\The Silent Age\TheSilentAge_Data\sharedassets15.assets
Format : MPEG-PS
File size : 4.96 KiB

 

 

 

General

Complete name : D:\Highly Compressed Games\RepackGames.Net – The Silent Age\The Silent Age\TheSilentAge_Data\sharedassets16.assets
Format : MPEG Audio
File size : 3.08 MiB
Overall bit rate mode : Variable

 

Audio

Format : MPEG Audio
Format version : Version 2
Format profile : Layer 1
Mode : Joint stereo
Emphasis : Reserved
Bit rate mode : Variable
Channel(s) : 2 channels
Sampling rate : 24.0 KHz
Compression mode : Lossy
Stream size : 3.08 MiB (100%)

 

 

 

General

Complete name : D:\Highly Compressed Games\RepackGames.Net – The Silent Age\The Silent Age\TheSilentAge_Data\sharedassets17.assets
File size : 27.3 MiB

 

 

 

General

Complete name : D:\Highly Compressed Games\RepackGames.Net – The Silent Age\The Silent Age\TheSilentAge_Data\sharedassets17.assets.resS
Format : OGG
File size : 72.2 KiB
Duration : 1s 458ms
Overall bit rate mode : Variable
Overall bit rate : 406 Kbps
DURATION : 1.46

 

Audio

ID : 1852251536 (0x6E671D90)
Format : Vorbis
Format settings, Floor : 1
Duration : 1s 458ms
Bit rate mode : Variable
Bit rate : 84.0 Kbps
Channel(s) : 1 channel
Sampling rate : 44.1 KHz
Compression mode : Lossy
Stream size : 15.0 KiB (21%)
Writing library : libVorbis (Schaufenugget) (20101101 (Schaufenugget))

 

 

 

General

Complete name : D:\Highly Compressed Games\RepackGames.Net – The Silent Age\The Silent Age\TheSilentAge_Data\sharedassets18.assets
File size : 54.5 MiB

 

 

 

General

Complete name : D:\Highly Compressed Games\RepackGames.Net – The Silent Age\The Silent Age\TheSilentAge_Data\sharedassets18.assets.resS
Format : OGG
File size : 66.5 KiB
Duration : 6s 0ms
Overall bit rate mode : Variable
Overall bit rate : 90.8 Kbps
DURATION : 6.00

 

Audio

ID : 208521055 (0xC6DC75F)
Format : Vorbis
Format settings, Floor : 1
Duration : 6s 0ms
Bit rate mode : Variable
Bit rate : 84.0 Kbps
Channel(s) : 2 channels
Sampling rate : 44.1 KHz
Compression mode : Lossy
Stream size : 61.5 KiB (92%)
Writing library : libVorbis (Schaufenugget) (20101101 (Schaufenugget))

 

 

 

General

Complete name : D:\Highly Compressed Games\RepackGames.Net – The Silent Age\The Silent Age\TheSilentAge_Data\sharedassets19.assets
File size : 39.9 MiB

 

 

 

General

Complete name : D:\Highly Compressed Games\RepackGames.Net – The Silent Age\The Silent Age\TheSilentAge_Data\sharedassets19.assets.resS
Format : OGG
File size : 200 KiB
Duration : 2s 112ms
Overall bit rate mode : Variable
Overall bit rate : 777 Kbps
DURATION : 2.11

 

Audio

ID : 1096991496 (0x4162C308)
Format : Vorbis
Format settings, Floor : 1
Duration : 2s 112ms
Bit rate mode : Variable
Bit rate : 84.0 Kbps
Channel(s) : 1 channel
Sampling rate : 44.1 KHz
Compression mode : Lossy
Stream size : 21.7 KiB (11%)
Writing library : libVorbis (Schaufenugget) (20101101 (Schaufenugget))

 

 

 

General

Complete name : D:\Highly Compressed Games\RepackGames.Net – The Silent Age\The Silent Age\TheSilentAge_Data\sharedassets2.assets
File size : 4.09 KiB

 

 

 

General

Complete name : D:\Highly Compressed Games\RepackGames.Net – The Silent Age\The Silent Age\TheSilentAge_Data\sharedassets20.assets
File size : 33.4 MiB

 

 

 

General

Complete name : D:\Highly Compressed Games\RepackGames.Net – The Silent Age\The Silent Age\TheSilentAge_Data\sharedassets20.assets.resS
Format : OGG
File size : 107 KiB
Duration : 10s 0ms
Overall bit rate mode : Variable
Overall bit rate : 88.1 Kbps
DURATION : 10.00

 

Audio

ID : 2050018042 (0x7A30CAFA)
Format : Vorbis
Format settings, Floor : 1
Duration : 10s 0ms
Bit rate mode : Variable
Bit rate : 84.0 Kbps
Channel(s) : 1 channel
Sampling rate : 44.1 KHz
Compression mode : Lossy
Stream size : 103 KiB (95%)
Writing library : libVorbis (Schaufenugget) (20101101 (Schaufenugget))

 

 

 

General

Complete name : D:\Highly Compressed Games\RepackGames.Net – The Silent Age\The Silent Age\TheSilentAge_Data\sharedassets21.assets
File size : 19.6 MiB

 

 

 

General

Complete name : D:\Highly Compressed Games\RepackGames.Net – The Silent Age\The Silent Age\TheSilentAge_Data\sharedassets22.assets
File size : 39.2 MiB

 

 

 

General

Complete name : D:\Highly Compressed Games\RepackGames.Net – The Silent Age\The Silent Age\TheSilentAge_Data\sharedassets23.assets
Format : MPEG-PS
File size : 58.5 MiB

 

 

 

General

Complete name : D:\Highly Compressed Games\RepackGames.Net – The Silent Age\The Silent Age\TheSilentAge_Data\sharedassets24.assets
File size : 17.0 MiB

 

 

 

General

Complete name : D:\Highly Compressed Games\RepackGames.Net – The Silent Age\The Silent Age\TheSilentAge_Data\sharedassets24.assets.resS
Format : OGG
File size : 22.8 KiB
Duration : 2s 517ms
Overall bit rate mode : Variable
Overall bit rate : 74.1 Kbps
DURATION : 2.52

 

Audio

ID : 1937699697 (0x737EF371)
Format : Vorbis
Format settings, Floor : 1
Duration : 2s 517ms
Bit rate mode : Variable
Bit rate : 64.0 Kbps
Channel(s) : 1 channel
Sampling rate : 44.1 KHz
Compression mode : Lossy
Stream size : 19.7 KiB (86%)
Writing library : libVorbis (Schaufenugget) (20101101 (Schaufenugget))

 

 

 

General

Complete name : D:\Highly Compressed Games\RepackGames.Net – The Silent Age\The Silent Age\TheSilentAge_Data\sharedassets25.assets
File size : 28.4 MiB

 

 

 

General

Complete name : D:\Highly Compressed Games\RepackGames.Net – The Silent Age\The Silent Age\TheSilentAge_Data\sharedassets25.assets.resS
Format : OGG
File size : 132 KiB
Duration : 8s 0ms
Overall bit rate mode : Variable
Overall bit rate : 135 Kbps
DURATION : 8.00

 

Audio

ID : 671229527 (0x28022657)
Format : Vorbis
Format settings, Floor : 1
Duration : 8s 0ms
Bit rate mode : Variable
Bit rate : 84.0 Kbps
Channel(s) : 1 channel
Sampling rate : 44.1 KHz
Compression mode : Lossy
Stream size : 82.0 KiB (62%)
Writing library : libVorbis (Schaufenugget) (20101101 (Schaufenugget))

 

 

 

General

Complete name : D:\Highly Compressed Games\RepackGames.Net – The Silent Age\The Silent Age\TheSilentAge_Data\sharedassets26.assets
Format : MPEG Audio
File size : 3.26 MiB
Overall bit rate mode : Variable

 

Audio

Format : MPEG Audio
Format version : Version 1
Format profile : Layer 1
Mode extension : Intensity Stereo
Emphasis : 50/15ms
Bit rate mode : Variable
Channel(s) : 2 channels
Sampling rate : 48.0 KHz
Compression mode : Lossy
Stream size : 131 KiB (4%)

 

 

 

General

Complete name : D:\Highly Compressed Games\RepackGames.Net – The Silent Age\The Silent Age\TheSilentAge_Data\sharedassets26.assets.resS
Format : OGG
File size : 1.22 MiB
Overall bit rate mode : Variable
DURATION : 0.96

 

Audio

ID : 1743291964 (0x67E8863C)
Format : Vorbis
Format settings, Floor : 1
Bit rate mode : Variable
Bit rate : 84.0 Kbps
Channel(s) : 1 channel
Sampling rate : 44.1 KHz
Compression mode : Lossy
Writing library : libVorbis (Schaufenugget) (20101101 (Schaufenugget))

 

 

 

General

Complete name : D:\Highly Compressed Games\RepackGames.Net – The Silent Age\The Silent Age\TheSilentAge_Data\sharedassets27.assets
File size : 56.0 MiB

 

 

 

General

Complete name : D:\Highly Compressed Games\RepackGames.Net – The Silent Age\The Silent Age\TheSilentAge_Data\sharedassets28.assets
File size : 55.6 MiB

 

 

 

General

Complete name : D:\Highly Compressed Games\RepackGames.Net – The Silent Age\The Silent Age\TheSilentAge_Data\sharedassets28.assets.resS
Format : OGG
File size : 58.7 KiB
Duration : 5s 285ms
Overall bit rate mode : Variable
Overall bit rate : 91.0 Kbps
DURATION : 5.29

 

Audio

ID : 443234064 (0x1A6B3710)
Format : Vorbis
Format settings, Floor : 1
Duration : 5s 285ms
Bit rate mode : Variable
Bit rate : 84.0 Kbps
Channel(s) : 2 channels
Sampling rate : 44.1 KHz
Compression mode : Lossy
Stream size : 54.2 KiB (92%)
Writing library : libVorbis (Schaufenugget) (20101101 (Schaufenugget))

 

 

 

General

Complete name : D:\Highly Compressed Games\RepackGames.Net – The Silent Age\The Silent Age\TheSilentAge_Data\sharedassets29.assets
File size : 22.6 MiB

 

 

 

General

Complete name : D:\Highly Compressed Games\RepackGames.Net – The Silent Age\The Silent Age\TheSilentAge_Data\sharedassets29.assets.resS
Format : OGG
File size : 261 KiB
Duration : 3s 335ms
Overall bit rate mode : Variable
Overall bit rate : 642 Kbps
DURATION : 3.33

 

Audio

ID : 1791054204 (0x6AC1517C)
Format : Vorbis
Format settings, Floor : 1
Duration : 3s 335ms
Bit rate mode : Variable
Bit rate : 64.0 Kbps
Channel(s) : 1 channel
Sampling rate : 44.1 KHz
Compression mode : Lossy
Stream size : 26.1 KiB (10%)
Writing library : libVorbis (Schaufenugget) (20101101 (Schaufenugget))

 

 

 

General

Complete name : D:\Highly Compressed Games\RepackGames.Net – The Silent Age\The Silent Age\TheSilentAge_Data\sharedassets3.assets
File size : 34.2 MiB

 

 

 

General

Complete name : D:\Highly Compressed Games\RepackGames.Net – The Silent Age\The Silent Age\TheSilentAge_Data\sharedassets3.assets.resS
Format : OGG
File size : 1.51 MiB
Overall bit rate mode : Variable
DURATION : 8.00

 

Audio

ID : 1096991496 (0x4162C308)
Format : Vorbis
Format settings, Floor : 1
Bit rate mode : Variable
Bit rate : 84.0 Kbps
Channel(s) : 2 channels
Sampling rate : 44.1 KHz
Compression mode : Lossy
Writing library : libVorbis (Schaufenugget) (20101101 (Schaufenugget))

 

 

 

General

Complete name : D:\Highly Compressed Games\RepackGames.Net – The Silent Age\The Silent Age\TheSilentAge_Data\sharedassets30.assets
File size : 13.9 MiB

 

 

 

General

Complete name : D:\Highly Compressed Games\RepackGames.Net – The Silent Age\The Silent Age\TheSilentAge_Data\sharedassets31.assets
File size : 15.8 MiB

 

 

 

General

Complete name : D:\Highly Compressed Games\RepackGames.Net – The Silent Age\The Silent Age\TheSilentAge_Data\sharedassets31.assets.resS
Format : OGG
File size : 187 KiB
Duration : 17s 603ms
Overall bit rate mode : Variable
Overall bit rate : 86.8 Kbps
DURATION : 17.60

 

Audio

ID : 1270507173 (0x4BBA66A5)
Format : Vorbis
Format settings, Floor : 1
Duration : 17s 603ms
Bit rate mode : Variable
Bit rate : 84.0 Kbps
Channel(s) : 2 channels
Sampling rate : 44.1 KHz
Compression mode : Lossy
Stream size : 180 KiB (97%)
Writing library : libVorbis (Schaufenugget) (20101101 (Schaufenugget))

 

 

 

General

Complete name : D:\Highly Compressed Games\RepackGames.Net – The Silent Age\The Silent Age\TheSilentAge_Data\sharedassets32.assets
File size : 15.0 MiB

 

 

 

General

Complete name : D:\Highly Compressed Games\RepackGames.Net – The Silent Age\The Silent Age\TheSilentAge_Data\sharedassets32.assets.resS
Format : Wave
File size : 124 KiB
Duration : 1s 437ms
Overall bit rate mode : Constant
Overall bit rate : 706 Kbps

 

Audio

Format : PCM
Format settings, Endianness : Little
Format settings, Sign : Signed
Codec ID : 1
Duration : 1s 437ms
Bit rate mode : Constant
Bit rate : 705.6 Kbps
Channel(s) : 1 channel
Sampling rate : 44.1 KHz
Bit depth : 16 bits
Stream size : 124 KiB (100%)

 

 

 

General

Complete name : D:\Highly Compressed Games\RepackGames.Net – The Silent Age\The Silent Age\TheSilentAge_Data\sharedassets33.assets
File size : 52.2 MiB

 

 

 

General

Complete name : D:\Highly Compressed Games\RepackGames.Net – The Silent Age\The Silent Age\TheSilentAge_Data\sharedassets34.assets
File size : 20.6 MiB

 

 

 

General

Complete name : D:\Highly Compressed Games\RepackGames.Net – The Silent Age\The Silent Age\TheSilentAge_Data\sharedassets35.assets
File size : 51.4 MiB

 

 

 

General

Complete name : D:\Highly Compressed Games\RepackGames.Net – The Silent Age\The Silent Age\TheSilentAge_Data\sharedassets35.assets.resS
Format : OGG
File size : 86.8 KiB
Duration : 8s 0ms
Overall bit rate mode : Variable
Overall bit rate : 88.9 Kbps
DURATION : 8.00

 

Audio

ID : 490996304 (0x1D440250)
Format : Vorbis
Format settings, Floor : 1
Duration : 8s 0ms
Bit rate mode : Variable
Bit rate : 84.0 Kbps
Channel(s) : 2 channels
Sampling rate : 44.1 KHz
Compression mode : Lossy
Stream size : 82.0 KiB (94%)
Writing library : libVorbis (Schaufenugget) (20101101 (Schaufenugget))

 

 

 

General

Complete name : D:\Highly Compressed Games\RepackGames.Net – The Silent Age\The Silent Age\TheSilentAge_Data\sharedassets36.assets
File size : 70.6 MiB

 

 

 

General

Complete name : D:\Highly Compressed Games\RepackGames.Net – The Silent Age\The Silent Age\TheSilentAge_Data\sharedassets36.assets.resS
Format : OGG
File size : 244 KiB
Duration : 1s 430ms
Overall bit rate mode : Variable
Overall bit rate : 1 397 Kbps
DURATION : 1.43

 

Audio

ID : 671229527 (0x28022657)
Format : Vorbis
Format settings, Floor : 1
Duration : 1s 430ms
Bit rate mode : Variable
Bit rate : 84.0 Kbps
Channel(s) : 1 channel
Sampling rate : 44.1 KHz
Compression mode : Lossy
Stream size : 14.7 KiB (6%)
Writing library : libVorbis (Schaufenugget) (20101101 (Schaufenugget))

 

 

 

General

Complete name : D:\Highly Compressed Games\RepackGames.Net – The Silent Age\The Silent Age\TheSilentAge_Data\sharedassets37.assets
File size : 47.5 MiB

 

 

 

General

Complete name : D:\Highly Compressed Games\RepackGames.Net – The Silent Age\The Silent Age\TheSilentAge_Data\sharedassets38.assets
File size : 52.8 MiB

 

 

 

General

Complete name : D:\Highly Compressed Games\RepackGames.Net – The Silent Age\The Silent Age\TheSilentAge_Data\sharedassets39.assets
File size : 52.7 MiB

 

 

 

General

Complete name : D:\Highly Compressed Games\RepackGames.Net – The Silent Age\The Silent Age\TheSilentAge_Data\sharedassets39.assets.resS
Format : Wave
File size : 217 KiB
Duration : 124ms
Overall bit rate mode : Constant
Overall bit rate : 14.3 Mbps

 

Audio

Format : PCM
Format settings, Endianness : Little
Format settings, Sign : Signed
Codec ID : 1
Duration : 124ms
Bit rate mode : Constant
Bit rate : 705.6 Kbps
Channel(s) : 1 channel
Sampling rate : 44.1 KHz
Bit depth : 16 bits
Stream size : 10.8 KiB (5%)

 

 

 

General

Complete name : D:\Highly Compressed Games\RepackGames.Net – The Silent Age\The Silent Age\TheSilentAge_Data\sharedassets4.assets
File size : 42.7 MiB

 

 

 

General

Complete name : D:\Highly Compressed Games\RepackGames.Net – The Silent Age\The Silent Age\TheSilentAge_Data\sharedassets4.assets.resS
Format : OGG
File size : 3.70 MiB
Overall bit rate mode : Variable
DURATION : 20.69

 

Audio

ID : 164117588 (0x9C83C54)
Format : Vorbis
Format settings, Floor : 1
Bit rate mode : Variable
Bit rate : 84.0 Kbps
Channel(s) : 2 channels
Sampling rate : 44.1 KHz
Compression mode : Lossy
Writing library : libVorbis (Schaufenugget) (20101101 (Schaufenugget))

 

 

 

General

Complete name : D:\Highly Compressed Games\RepackGames.Net – The Silent Age\The Silent Age\TheSilentAge_Data\sharedassets40.assets
File size : 48.0 MiB

 

 

 

General

Complete name : D:\Highly Compressed Games\RepackGames.Net – The Silent Age\The Silent Age\TheSilentAge_Data\sharedassets40.assets.resS
Format : Wave / Wave
File size : 254 KiB
Duration : 1s 55ms
Overall bit rate : 1 969 Kbps

 

Audio #1

Format : PCM
Codec ID : 1
Duration : 1s 55ms
Bit rate : 256 Kbps
Channel(s) : 1 channel
Sampling rate : 44.1 KHz
Bit depth : 16 bits
Stream size : 90.9 KiB (36%)

 

Audio #2

Format : PCM
Format settings, Endianness : Little
Format settings, Sign : Signed
Codec ID : 1
Duration : 1s 55ms
Bit rate mode : Constant
Bit rate : 705.6 Kbps
Channel(s) : 1 channel
Sampling rate : 44.1 KHz
Bit depth : 16 bits
Stream size : 90.9 KiB (36%)

 

 

 

General

Complete name : D:\Highly Compressed Games\RepackGames.Net – The Silent Age\The Silent Age\TheSilentAge_Data\sharedassets41.assets
File size : 30.8 MiB

 

 

 

General

Complete name : D:\Highly Compressed Games\RepackGames.Net – The Silent Age\The Silent Age\TheSilentAge_Data\sharedassets42.assets
File size : 53.8 MiB

 

 

 

General

Complete name : D:\Highly Compressed Games\RepackGames.Net – The Silent Age\The Silent Age\TheSilentAge_Data\sharedassets42.assets.resS
Format : OGG
File size : 108 KiB
Duration : 10s 0ms
Overall bit rate mode : Variable
Overall bit rate : 88.2 Kbps
DURATION : 10.00

 

Audio

ID : 936910911 (0x37D8203F)
Format : Vorbis
Format settings, Floor : 1
Duration : 10s 0ms
Bit rate mode : Variable
Bit rate : 84.0 Kbps
Channel(s) : 2 channels
Sampling rate : 44.1 KHz
Compression mode : Lossy
Stream size : 103 KiB (95%)
Writing library : libVorbis (Schaufenugget) (20101101 (Schaufenugget))

 

 

 

General

Complete name : D:\Highly Compressed Games\RepackGames.Net – The Silent Age\The Silent Age\TheSilentAge_Data\sharedassets43.assets
File size : 41.9 MiB

 

 

 

General

Complete name : D:\Highly Compressed Games\RepackGames.Net – The Silent Age\The Silent Age\TheSilentAge_Data\sharedassets43.assets.resS
Format : OGG
File size : 45.3 KiB
Duration : 4s 0ms
Overall bit rate mode : Variable
Overall bit rate : 92.7 Kbps
DURATION : 4.00

 

Audio

ID : 497713850 (0x1DAA82BA)
Format : Vorbis
Format settings, Floor : 1
Duration : 4s 0ms
Bit rate mode : Variable
Bit rate : 84.0 Kbps
Channel(s) : 2 channels
Sampling rate : 44.1 KHz
Compression mode : Lossy
Stream size : 41.0 KiB (91%)
Writing library : libVorbis (Schaufenugget) (20101101 (Schaufenugget))

 

 

 

General

Complete name : D:\Highly Compressed Games\RepackGames.Net – The Silent Age\The Silent Age\TheSilentAge_Data\sharedassets44.assets
File size : 99.1 MiB

 

 

 

General

Complete name : D:\Highly Compressed Games\RepackGames.Net – The Silent Age\The Silent Age\TheSilentAge_Data\sharedassets44.assets.resS
Format : Wave
File size : 1.01 MiB
Duration : 6s 0ms
Overall bit rate mode : Constant
Overall bit rate : 1 411 Kbps

 

Audio

Format : PCM
Format settings, Endianness : Little
Format settings, Sign : Signed
Codec ID : 1
Duration : 6s 0ms
Bit rate mode : Constant
Bit rate : 1 411.2 Kbps
Channel(s) : 2 channels
Sampling rate : 44.1 KHz
Bit depth : 16 bits
Stream size : 1.01 MiB (100%)

 

 

 

General

Complete name : D:\Highly Compressed Games\RepackGames.Net – The Silent Age\The Silent Age\TheSilentAge_Data\sharedassets45.assets
File size : 49.8 MiB

 

 

 

General

Complete name : D:\Highly Compressed Games\RepackGames.Net – The Silent Age\The Silent Age\TheSilentAge_Data\sharedassets46.assets
File size : 40.7 MiB

 

 

 

General

Complete name : D:\Highly Compressed Games\RepackGames.Net – The Silent Age\The Silent Age\TheSilentAge_Data\sharedassets46.assets.resS
Format : OGG
File size : 81.8 KiB
Duration : 7s 500ms
Overall bit rate mode : Variable
Overall bit rate : 89.4 Kbps
DURATION : 7.50

 

Audio

ID : 988031924 (0x3AE42BB4)
Format : Vorbis
Format settings, Floor : 1
Duration : 7s 500ms
Bit rate mode : Variable
Bit rate : 84.0 Kbps
Channel(s) : 2 channels
Sampling rate : 44.1 KHz
Compression mode : Lossy
Stream size : 76.9 KiB (94%)
Writing library : libVorbis (Schaufenugget) (20101101 (Schaufenugget))

 

 

 

General

Complete name : D:\Highly Compressed Games\RepackGames.Net – The Silent Age\The Silent Age\TheSilentAge_Data\sharedassets47.assets
File size : 31.8 MiB

 

 

 

General

Complete name : D:\Highly Compressed Games\RepackGames.Net – The Silent Age\The Silent Age\TheSilentAge_Data\sharedassets48.assets
File size : 29.4 MiB

 

 

 

General

Complete name : D:\Highly Compressed Games\RepackGames.Net – The Silent Age\The Silent Age\TheSilentAge_Data\sharedassets49.assets
File size : 68.6 MiB

 

 

 

General

Complete name : D:\Highly Compressed Games\RepackGames.Net – The Silent Age\The Silent Age\TheSilentAge_Data\sharedassets5.assets
File size : 4.27 KiB

 

 

 

General

Complete name : D:\Highly Compressed Games\RepackGames.Net – The Silent Age\The Silent Age\TheSilentAge_Data\sharedassets50.assets
File size : 34.1 MiB

 

 

 

General

Complete name : D:\Highly Compressed Games\RepackGames.Net – The Silent Age\The Silent Age\TheSilentAge_Data\sharedassets50.assets.resS
Format : Wave
File size : 487 KiB
Duration : 2s 820ms
Overall bit rate mode : Constant
Overall bit rate : 1 413 Kbps
Producer : Logic Pro
Encoded date : 2012-02-12 18:17:47

 

Audio

Format : PCM
Format settings, Endianness : Little
Format settings, Sign : Signed
Codec ID : 1
Duration : 2s 820ms
Bit rate mode : Constant
Bit rate : 1 411.2 Kbps
Channel(s) : 2 channels
Sampling rate : 44.1 KHz
Bit depth : 16 bits
Stream size : 486 KiB (100%)

 

 

 

General

Complete name : D:\Highly Compressed Games\RepackGames.Net – The Silent Age\The Silent Age\TheSilentAge_Data\sharedassets51.assets
File size : 23.8 MiB

 

 

 

General

Complete name : D:\Highly Compressed Games\RepackGames.Net – The Silent Age\The Silent Age\TheSilentAge_Data\sharedassets51.assets.resS
Format : OGG
File size : 89.5 KiB
Duration : 8s 250ms
Overall bit rate mode : Variable
Overall bit rate : 88.9 Kbps
DURATION : 8.25

 

Audio

ID : 1338422051 (0x4FC6B323)
Format : Vorbis
Format settings, Floor : 1
Duration : 8s 250ms
Bit rate mode : Variable
Bit rate : 84.0 Kbps
Channel(s) : 2 channels
Sampling rate : 44.1 KHz
Compression mode : Lossy
Stream size : 84.6 KiB (95%)
Writing library : libVorbis (Schaufenugget) (20101101 (Schaufenugget))

 

 

 

General

Complete name : D:\Highly Compressed Games\RepackGames.Net – The Silent Age\The Silent Age\TheSilentAge_Data\sharedassets52.assets
Format : MPEG-PS
File size : 54.0 MiB

 

 

 

General

Complete name : D:\Highly Compressed Games\RepackGames.Net – The Silent Age\The Silent Age\TheSilentAge_Data\sharedassets53.assets
File size : 34.5 MiB

 

 

 

General

Complete name : D:\Highly Compressed Games\RepackGames.Net – The Silent Age\The Silent Age\TheSilentAge_Data\sharedassets53.assets.resS
Format : OGG
File size : 170 KiB
Duration : 16s 0ms
Overall bit rate mode : Variable
Overall bit rate : 87.0 Kbps
DURATION : 16.00

 

Audio

ID : 1876502365 (0x6FD9275D)
Format : Vorbis
Format settings, Floor : 1
Duration : 16s 0ms
Bit rate mode : Variable
Bit rate : 84.0 Kbps
Channel(s) : 2 channels
Sampling rate : 44.1 KHz
Compression mode : Lossy
Stream size : 164 KiB (96%)
Writing library : libVorbis (Schaufenugget) (20101101 (Schaufenugget))

 

 

 

General

Complete name : D:\Highly Compressed Games\RepackGames.Net – The Silent Age\The Silent Age\TheSilentAge_Data\sharedassets54.assets
File size : 21.3 MiB

 

 

 

General

Complete name : D:\Highly Compressed Games\RepackGames.Net – The Silent Age\The Silent Age\TheSilentAge_Data\sharedassets55.assets
File size : 26.6 MiB

 

 

 

General

Complete name : D:\Highly Compressed Games\RepackGames.Net – The Silent Age\The Silent Age\TheSilentAge_Data\sharedassets56.assets
File size : 22.8 MiB

 

 

 

General

Complete name : D:\Highly Compressed Games\RepackGames.Net – The Silent Age\The Silent Age\TheSilentAge_Data\sharedassets57.assets
Format : MPEG-PS
File size : 32.1 MiB

 

 

 

General

Complete name : D:\Highly Compressed Games\RepackGames.Net – The Silent Age\The Silent Age\TheSilentAge_Data\sharedassets58.assets
File size : 4.35 MiB

 

 

 

General

Complete name : D:\Highly Compressed Games\RepackGames.Net – The Silent Age\The Silent Age\TheSilentAge_Data\sharedassets59.assets
File size : 76.3 MiB

 

 

 

General

Complete name : D:\Highly Compressed Games\RepackGames.Net – The Silent Age\The Silent Age\TheSilentAge_Data\sharedassets6.assets
File size : 2.55 MiB

 

 

 

General

Complete name : D:\Highly Compressed Games\RepackGames.Net – The Silent Age\The Silent Age\TheSilentAge_Data\sharedassets60.assets
File size : 62.0 MiB

 

 

 

General

Complete name : D:\Highly Compressed Games\RepackGames.Net – The Silent Age\The Silent Age\TheSilentAge_Data\sharedassets61.assets
File size : 39.6 MiB

 

 

 

General

Complete name : D:\Highly Compressed Games\RepackGames.Net – The Silent Age\The Silent Age\TheSilentAge_Data\sharedassets62.assets
File size : 31.9 MiB

 

 

 

General

Complete name : D:\Highly Compressed Games\RepackGames.Net – The Silent Age\The Silent Age\TheSilentAge_Data\sharedassets62.assets.resS
Format : OGG
File size : 48.3 KiB
Duration : 8s 0ms
Overall bit rate mode : Variable
Overall bit rate : 49.5 Kbps
DURATION : 8.00

 

Audio

ID : 1937699697 (0x737EF371)
Format : Vorbis
Format settings, Floor : 1
Duration : 8s 0ms
Bit rate mode : Variable
Bit rate : 45.0 Kbps
Channel(s) : 2 channels
Sampling rate : 44.1 KHz
Compression mode : Lossy
Stream size : 43.9 KiB (91%)
Writing library : libVorbis (Schaufenugget) (20101101 (Schaufenugget))

 

 

 

General

Complete name : D:\Highly Compressed Games\RepackGames.Net – The Silent Age\The Silent Age\TheSilentAge_Data\sharedassets63.assets
File size : 42.0 MiB

 

 

 

General

Complete name : D:\Highly Compressed Games\RepackGames.Net – The Silent Age\The Silent Age\TheSilentAge_Data\sharedassets64.assets
File size : 15.4 MiB

 

 

 

General

Complete name : D:\Highly Compressed Games\RepackGames.Net – The Silent Age\The Silent Age\TheSilentAge_Data\sharedassets65.assets
Format : MPEG-PS
File size : 54.0 MiB

 

 

 

General

Complete name : D:\Highly Compressed Games\RepackGames.Net – The Silent Age\The Silent Age\TheSilentAge_Data\sharedassets66.assets
File size : 26.6 MiB

 

 

 

General

Complete name : D:\Highly Compressed Games\RepackGames.Net – The Silent Age\The Silent Age\TheSilentAge_Data\sharedassets67.assets
File size : 4.20 KiB

 

 

 

General

Complete name : D:\Highly Compressed Games\RepackGames.Net – The Silent Age\The Silent Age\TheSilentAge_Data\sharedassets68.assets
File size : 36.0 MiB

 

 

 

General

Complete name : D:\Highly Compressed Games\RepackGames.Net – The Silent Age\The Silent Age\TheSilentAge_Data\sharedassets69.assets
File size : 23.0 MiB

 

 

 

General

Complete name : D:\Highly Compressed Games\RepackGames.Net – The Silent Age\The Silent Age\TheSilentAge_Data\sharedassets7.assets
File size : 9.36 KiB

 

 

 

General

Complete name : D:\Highly Compressed Games\RepackGames.Net – The Silent Age\The Silent Age\TheSilentAge_Data\sharedassets70.assets
File size : 103 MiB

 

 

 

General

Complete name : D:\Highly Compressed Games\RepackGames.Net – The Silent Age\The Silent Age\TheSilentAge_Data\sharedassets71.assets
File size : 42.0 MiB

 

 

 

General

Complete name : D:\Highly Compressed Games\RepackGames.Net – The Silent Age\The Silent Age\TheSilentAge_Data\sharedassets72.assets
File size : 57.0 MiB

 

 

 

General

Complete name : D:\Highly Compressed Games\RepackGames.Net – The Silent Age\The Silent Age\TheSilentAge_Data\sharedassets73.assets
File size : 36.0 MiB

 

 

 

General

Complete name : D:\Highly Compressed Games\RepackGames.Net – The Silent Age\The Silent Age\TheSilentAge_Data\sharedassets74.assets
File size : 27.5 MiB

 

 

 

General

Complete name : D:\Highly Compressed Games\RepackGames.Net – The Silent Age\The Silent Age\TheSilentAge_Data\sharedassets75.assets
File size : 16.3 MiB

 

 

 

General

Complete name : D:\Highly Compressed Games\RepackGames.Net – The Silent Age\The Silent Age\TheSilentAge_Data\sharedassets76.assets
File size : 29.6 MiB

 

 

 

General

Complete name : D:\Highly Compressed Games\RepackGames.Net – The Silent Age\The Silent Age\TheSilentAge_Data\sharedassets77.assets
File size : 28.1 MiB

 

 

 

General

Complete name : D:\Highly Compressed Games\RepackGames.Net – The Silent Age\The Silent Age\TheSilentAge_Data\sharedassets78.assets
File size : 59.1 MiB

 

 

 

General

Complete name : D:\Highly Compressed Games\RepackGames.Net – The Silent Age\The Silent Age\TheSilentAge_Data\sharedassets79.assets
File size : 40.3 MiB

 

 

 

General

Complete name : D:\Highly Compressed Games\RepackGames.Net – The Silent Age\The Silent Age\TheSilentAge_Data\sharedassets8.assets
File size : 4.23 KiB

 

 

 

General

Complete name : D:\Highly Compressed Games\RepackGames.Net – The Silent Age\The Silent Age\TheSilentAge_Data\sharedassets80.assets
File size : 45.0 MiB

 

 

 

General

Complete name : D:\Highly Compressed Games\RepackGames.Net – The Silent Age\The Silent Age\TheSilentAge_Data\sharedassets81.assets
File size : 18.1 MiB

 

 

 

General

Complete name : D:\Highly Compressed Games\RepackGames.Net – The Silent Age\The Silent Age\TheSilentAge_Data\sharedassets82.assets
Format : MPEG-PS
File size : 4.96 KiB

 

 

 

General

Complete name : D:\Highly Compressed Games\RepackGames.Net – The Silent Age\The Silent Age\TheSilentAge_Data\sharedassets83.assets
File size : 4.14 KiB

 

 

 

General

Complete name : D:\Highly Compressed Games\RepackGames.Net – The Silent Age\The Silent Age\TheSilentAge_Data\sharedassets84.assets
File size : 4.20 KiB

 

 

 

General

Complete name : D:\Highly Compressed Games\RepackGames.Net – The Silent Age\The Silent Age\TheSilentAge_Data\sharedassets85.assets
File size : 35.5 MiB

 

 

 

General

Complete name : D:\Highly Compressed Games\RepackGames.Net – The Silent Age\The Silent Age\TheSilentAge_Data\sharedassets86.assets
File size : 30.8 MiB

 

 

 

General

Complete name : D:\Highly Compressed Games\RepackGames.Net – The Silent Age\The Silent Age\TheSilentAge_Data\sharedassets86.assets.resS
Format : OGG
File size : 27.4 KiB
Duration : 6s 0ms
Overall bit rate mode : Variable
Overall bit rate : 37.4 Kbps
DURATION : 6.00

 

Audio

ID : 1961211108 (0x74E5B4E4)
Format : Vorbis
Format settings, Floor : 1
Duration : 6s 0ms
Bit rate mode : Variable
Bit rate : 32.0 Kbps
Channel(s) : 1 channel
Sampling rate : 44.1 KHz
Compression mode : Lossy
Stream size : 23.4 KiB (86%)
Writing library : libVorbis (Schaufenugget) (20101101 (Schaufenugget))

 

 

 

General

Complete name : D:\Highly Compressed Games\RepackGames.Net – The Silent Age\The Silent Age\TheSilentAge_Data\sharedassets87.assets
File size : 92.6 MiB

 

 

 

General

Complete name : D:\Highly Compressed Games\RepackGames.Net – The Silent Age\The Silent Age\TheSilentAge_Data\sharedassets87.assets.resS
Format : OGG
File size : 906 KiB
Duration : 1mn 36s
Overall bit rate mode : Variable
Overall bit rate : 77.3 Kbps
DURATION : 96.00

 

Audio

ID : 320839400 (0x131F9EE8)
Format : Vorbis
Format settings, Floor : 1
Duration : 1mn 36s
Bit rate mode : Variable
Bit rate : 76.0 Kbps
Channel(s) : 2 channels
Sampling rate : 44.1 KHz
Compression mode : Lossy
Stream size : 891 KiB (98%)
Writing library : libVorbis (Schaufenugget) (20101101 (Schaufenugget))

 

 

 

General

Complete name : D:\Highly Compressed Games\RepackGames.Net – The Silent Age\The Silent Age\TheSilentAge_Data\sharedassets88.assets
File size : 21.0 MiB

 

 

 

General

Complete name : D:\Highly Compressed Games\RepackGames.Net – The Silent Age\The Silent Age\TheSilentAge_Data\sharedassets89.assets
File size : 13.7 MiB

 

 

 

General

Complete name : D:\Highly Compressed Games\RepackGames.Net – The Silent Age\The Silent Age\TheSilentAge_Data\sharedassets9.assets
File size : 15.5 MiB

 

 

 

General

Complete name : D:\Highly Compressed Games\RepackGames.Net – The Silent Age\The Silent Age\TheSilentAge_Data\sharedassets90.assets
File size : 54.0 MiB

 

 

 

General

Complete name : D:\Highly Compressed Games\RepackGames.Net – The Silent Age\The Silent Age\TheSilentAge_Data\sharedassets91.assets
File size : 24.9 MiB

 

 

 

General

Complete name : D:\Highly Compressed Games\RepackGames.Net – The Silent Age\The Silent Age\TheSilentAge_Data\sharedassets92.assets
File size : 7.41 MiB

 

 

 

General

Complete name : D:\Highly Compressed Games\RepackGames.Net – The Silent Age\The Silent Age\TheSilentAge_Data\sharedassets93.assets
File size : 187 KiB

 

 

 

General

Complete name : D:\Highly Compressed Games\RepackGames.Net – The Silent Age\The Silent Age\TheSilentAge_Data\sharedassets94.assets
File size : 18.7 MiB

 

 

 

General

Complete name : D:\Highly Compressed Games\RepackGames.Net – The Silent Age\The Silent Age\TheSilentAge_Data\sharedassets95.assets
File size : 25.3 MiB

 

 

 

General

Complete name : D:\Highly Compressed Games\RepackGames.Net – The Silent Age\The Silent Age\TheSilentAge_Data\sharedassets96.assets
File size : 28.2 MiB

 

 

 

General

Complete name : D:\Highly Compressed Games\RepackGames.Net – The Silent Age\The Silent Age\TheSilentAge_Data\sharedassets97.assets
File size : 18.3 MiB

 

 

 

General

Complete name : D:\Highly Compressed Games\RepackGames.Net – The Silent Age\The Silent Age\TheSilentAge_Data\sharedassets98.assets
File size : 14.8 MiB

 

 

 

General

Complete name : D:\Highly Compressed Games\RepackGames.Net – The Silent Age\The Silent Age\TheSilentAge_Data\sharedassets99.assets
Format : MPEG-PS
File size : 54.0 MiB

 

 

 

General

Complete name : D:\Highly Compressed Games\RepackGames.Net – The Silent Age\The Silent Age\.DS_Store
File size : 6.00 KiB

 

 

The Silent Age Repack Free Download

——————————————————————————-
Post Information
——————————————————————————-
Posted by…………: RepackGames.Net
Fills Policy………: Ask for them nicely
Repost Policy……..: 5 days after original post

——————————————————————————-

The Silent Age Repack Free Download

——————————————————————————-
Release Notes
——————————————————————————-

Visit www.RepackGames.Net to get latest repack games for free.

——————————————————————————-

The Silent Age Repack Free Download

Here are quick steps how to installing The Silent Age Repack PC Game, make sure you follow the steps that we have given below correctly.

How to Install
  1. Unrar with latest winRAR version.
  2. Run “setup.exe”.
  3. Start the game from installed direction.
  4. Support the software developers. If you like this game, please buy it! Thank you very much.

Note
  1. Block the game’s exe in your firewall to prevent the game from trying to go online.
  2. If you install games to your systemdrive, it may be necessary to run this game with admin privileges instead.

The Silent Age Repack Free Download

Download The Silent Age Repack from this website. RepackGames.Net offering this latest repack game for free. Get working repack game without bugs and error. We had posted direct download links to download this game for PC (Personal Computer) without cost (100% free). The latest and updated game by the publishers are given here. Download The Silent Age Repack in Highly Compressed Games form without viruses. This game have been repacked by trusted group. Download complete game (include crack, update, hotfix, etc) from here. RepackGames.Net also provides crack-patch of this game. In this post, we also insert the trailer of the game, so before downloading this game please take your time first to watch the trailer that already we served, click on Trailer tab above. Please install it using recommended settings. Enjoy playing this amazing game for free on your PC. Share with friends. Thanks for having look over our work! Please note that this game is hosted on a third-party file sharing website, and it is not affiliated with RepackGames.Net.

Incoming search terms:

Tags: #The Silent Age Highly Compressed #The Silent Age PC Game Repack Free Download #The Silent Age Repack #The Silent Age Repack Crack #The Silent Age Repack Download #The Silent Age Repack Free #The Silent Age Repack Free Download #The Silent Age Repack Full Version