Outlast Repack Free Download

1072 views

Outlast Repack Free Download

Outlast Repack Free Download

AboutFeaturesScreenshotsTrailerSystem Requirements.NFO

Basic Information

Outlast Repack Free Download PC Game setup for Windows operating system (OS). Outlast Repack is a Action, Adventure, and Indie game. Outlast Repack is a PC game that developed and published by Red Barrels. Outlast Repack game was released on 4 September, 2013. The size of this game is 4.17 GB. It was released for all platforms, but we are only offering this game to play only on PC/Windows. It supports single player mode only.

Description

Hell is an experiment you can’t survive in Outlast, a first-person survival horror game developed by veterans of some of the biggest game franchises in history. As investigative journalist Miles Upshur, explore Mount Massive Asylum and try to survive long enough to discover its terrible secret… if you dare.

Synopsis:

In the remote mountains of Colorado, horrors wait inside Mount Massive Asylum. A long-abandoned home for the mentally ill, recently re-opened by the “research and charity” branch of the transnational Murkoff Corporation, the asylum has been operating in strict secrecy… until now.

Acting on a tip from an anonymous source, independent journalist Miles Upshur breaks into the facility, and what he discovers walks a terrifying line between science and religion, nature and something else entirely. Once inside, his only hope of escape lies with the terrible truth at the heart of Mount Massive.

Outlast is a true survival horror experience which aims to show that the most terrifying monsters of all come from the human mind.

Game Features:
  • True Survival Horror Experience: You are no fighter – if you want to survive the horrors of the asylum, your only chance is to run… or hide
  • Immersive Graphics: AAA-quality graphics give players a detailed, terrifying world to explore
  • Hide and Sneak: Stealth-based gameplay, with parkour-inspired platforming elements
  • Unpredictable Enemies: Players cannot know when – and from where – one of the asylum’s terrifying inhabitants will finally catch up to them
  • Real Horror: Outlast’s setting and characters are inspired by real asylums and cases of criminal insanity

Repack Features:
  • Based on PROPHET ISO release: 4.17 GB (4,483,465,216 bytes).
  • MD5 Perfect: all files are identical to originals after installation.
  • Version of the game v1.0.12046.0.
  • Support multiple languages.
  • NOTHING ripped, NOTHING re-encoded, pure only repack.
  • Repack by RepackGames.Net.

Outlast Repack Free Download

Snapshot of Outlast Repack

Image of Outlast Repack

This game system requirements are described in the content below. With these specifications, the game will run smoothly and graphics would be crystal clear. A machine (CPU) better than these specifications is most beneficiary.

MINIMUM:
  • OS: Windows XP / Vista / 7 / 8 – 64 bits *
  • Processor: 2.2 GHz Dual Core CPU
  • Memory: 2 GB RAM
  • Graphics: 512 MB NVIDIA GeForce 9800GTX / ATI Radeon HD 3xxx series
  • DirectX: Version 9.0c
  • Network: Broadband Internet connection
  • Hard Drive: 5 GB available space
  • Sound Card: DirectX Compatible
  • Additional Notes: * 32 bits systems are not officially supported, but should work if configured to provide 3Gb of user-mode address space. See http://msdn.microsoft.com/en-us/windows/bb613473

RECOMMENDED:
  • OS: Windows Vista / 7 / 8 – 64 bits
  • Processor: 2.8 GHz Quad Core CPU
  • Memory: 3 GB RAM
  • Graphics: 1GB NVIDIA GTX 460 / ATI Radeon HD 6850 or better
  • DirectX: Version 9.0c
  • Network: Broadband Internet connection
  • Hard Drive: 5 GB available space
  • Sound Card: DirectX Compatible

*******************************************************************************

Outlast Repack Free Download

Download Free Repack Games – RepackGames.Net

*******************************************************************************
Outlast Repack
*******************************************************************************

Outlast Repack Free Download

——————————————————————————-
General Information
——————————————————————————-

 

 

General

Complete name : D:\James\RepackGames.Net – Outlast Complete\Outlast\prophet.nfo
File size : 13.4 KiB

 

 

 

General

Complete name : D:\James\RepackGames.Net – Outlast Complete\Outlast\unins000.dat
File size : 369 KiB

 

 

 

General

Complete name : D:\James\RepackGames.Net – Outlast Complete\Outlast\unins000.exe
Format : MZ
Format profile : Executable / Intel i386
File size : 1.14 MiB
Encoded date : UTC 2014-07-09 07:58:14

 

 

 

General

Complete name : D:\James\RepackGames.Net – Outlast Complete\Outlast\icon.ico
Format : ICO
File size : 35.0 KiB

 

Image #1

Width : 48 pixels
Height : 48 pixels
Bit depth : 8 bits
Stream size : 3.66 KiB (10%)

 

Image #2

Width : 32 pixels
Height : 32 pixels
Bit depth : 8 bits
Stream size : 2.16 KiB (6%)

 

Image #3

Width : 24 pixels
Height : 24 pixels
Bit depth : 8 bits
Stream size : 1.70 KiB (5%)

 

Image #4

Width : 16 pixels
Height : 16 pixels
Bit depth : 8 bits
Stream size : 1.35 KiB (4%)

 

Image #5

Width : 48 pixels
Height : 48 pixels
Bit depth : 8 bits
Stream size : 3.66 KiB (10%)

 

Image #6

Width : 32 pixels
Height : 32 pixels
Bit depth : 8 bits
Stream size : 2.16 KiB (6%)

 

Image #7

Width : 24 pixels
Height : 24 pixels
Bit depth : 8 bits
Stream size : 1.70 KiB (5%)

 

Image #8

Width : 16 pixels
Height : 16 pixels
Bit depth : 8 bits
Stream size : 1.35 KiB (4%)

 

Image #9

Width : 48 pixels
Height : 48 pixels
Bit depth : 32 bits
Stream size : 9.41 KiB (27%)

 

Image #10

Width : 32 pixels
Height : 32 pixels
Bit depth : 32 bits
Stream size : 4.16 KiB (12%)

 

Image #11

Width : 24 pixels
Height : 24 pixels
Bit depth : 32 bits
Stream size : 2.38 KiB (7%)

 

Image #12

Width : 16 pixels
Height : 16 pixels
Bit depth : 32 bits
Stream size : 1.10 KiB (3%)

 

 

 

General

Complete name : D:\James\RepackGames.Net – Outlast Complete\Outlast\OutlastLauncher.exe
Format : MZ
Format profile : Executable / Intel i386
File size : 51.0 KiB
Encoded date : UTC 2014-03-28 19:56:55

 

 

Outlast Repack Free Download

——————————————————————————-
Post Information
——————————————————————————-
Posted by…………: RepackGames.Net
Fills Policy………: Ask for them nicely
Repost Policy……..: 5 days after original post

——————————————————————————-

Outlast Repack Free Download

——————————————————————————-
Release Notes
——————————————————————————-

Visit www.RepackGames.Net to get latest repack (highly compressed) PC games for free.

——————————————————————————-

Outlast Repack Free Download

Here are quick steps how to installing Outlast Repack PC Game, make sure you follow the steps that we have given below correctly.

How to Install
  1. Unrar with latest winRAR version.
  2. Run “setup.exe”.
  3. Start the game from installed direction.
  4. Support the software developers. If you like this game, please buy it! Thank you very much.

Note
  1. To  change  the language from the game main  menu  go  to  Options menu and select your language there.

Outlast Repack Free Download

Download Outlast Repack from this website. RepackGames.Net offering this latest repack game for free. Get working repack game without bugs and error. We had posted direct download links to download this game for PC (Personal Computer) without cost (100% free). The latest and updated game by the publishers are given here. Download Outlast Repack in highly compressed form without viruses. This game have been repacked by trusted group. Download complete game (include crack, update, hotfix, etc) from here. RepackGames.Net also provides crack-patch of this game. In this post, we also insert the trailer of the game, so before downloading this game please take your time first to watch the trailer that already we served, click on Trailer tab above. Please install it using recommended settings. Enjoy playing this amazing game for free on your PC. Share with friends. Thanks for having look over our work! Please note that this game is hosted on a third-party file sharing website, and it is not affiliated with RepackGames.Net.

DOWNLOAD

Incoming search terms:

Tags: #Action #Adventure #Indie #Outlast Highly Compressed #Outlast PC Game Repack Free Download #Outlast Repack #Outlast Repack Crack #Outlast Repack Download #Outlast Repack Free #Outlast Repack Free Download #Outlast Repack Full Version