NASCAR 15 Victory Edition Repack Free Download

329 views

NASCAR 15 Victory Edition Repack Free Download

NASCAR 15 Victory Edition Repack Free Download

AboutFeaturesScreenshotsTrailerSystem Requirements.NFO

Basic Information

NASCAR 15 Victory Edition Repack Free Download PC Game setup for Windows operating system (OS). NASCAR 15 Victory Edition Repack is a Racing game. NASCAR 15 Victory Edition Repack is a PC game that developed and published by Eutechnyx Dusenberry Martin Racing. NASCAR 15 Victory Edition Repack game was released on 22, May 2015. The size of this game is 1.48 GB (1,598,688,641 bytes). It was released for all platforms, but we are only offering this game to play only on PC/Windows. It supports single player mode only.

You may also like Transformers Devastation Repack.

Description

Featuring the 2015 NASCAR Sprint Cup Series season, NASCAR ’15 is the officially licensed racing simulation game. Includes Quick Race, Career and Multiplayer modes.

Repack Features:
  • Based on PLAZA ISO release: plaza-nascar.15.victory.edition.iso (2.45 GB).
  • MD5 Perfect: all files are identical to originals after installation.
  • Version of the game v1.0.0.0.
  • NOTHING ripped, NOTHING re-encoded, only repack.
  • Significantly smaller archive size (compressed from 2.45 GB to 1.48 GB)
  • Installation takes 3-4 minutes (depending on your PC performance).
  • Work perfectly.
  • Repack by RepackGames.Net.

NASCAR 15 Victory Edition Repack Free Download

Snapshot of NASCAR 15 Victory Edition Repack

This game system requirements are described in the content below. With these specifications, the game will run smoothly and graphics would be crystal clear. A machine (CPU) better than these specifications is most beneficiary.

MINIMUM:
  • OS: Windows XP/Vista/7
  • Processor: Intel Pentium 1.6 GHz or equivalent
  • Memory: 1 GB RAM
  • Graphics: 3D graphics card DirectX 9.0c compatible
  • DirectX: Version 9.0c
  • Hard Drive: 100 MB available space
  • Sound Card: Any Windows compatible sound device

RECOMMENDED:
  • OS: Windows 7
  • Processor: Quad Core Processor
  • Memory: 4 GB RAM
  • Graphics: NVIDIA GeForce GTX 560
  • DirectX: Version 9.0
  • Hard Drive: 5 GB available space
  • Sound Card: DirectX®-compatible

NASCAR 15 Victory Edition Repack Free Download

Download Free Repack Games – RepackGames.Net

***************************************
NASCAR 15 Victory Edition Repack
*********************************************************

NASCAR 15 Victory Edition Highly Compressed

——————————————————————————-
General Information
——————————————————————————-

 

 

General

Complete name : F:\Games\RepackGames.Net – NASCAR 15 Victory Edition\NASCAR 15 Victory Edition\data\ARCHIVE0.AR
File size : 717 MiB

 

 

 

General

Complete name : F:\Games\RepackGames.Net – NASCAR 15 Victory Edition\NASCAR 15 Victory Edition\data\ARCHIVE1.AR
File size : 448 MiB

 

 

 

General

Complete name : F:\Games\RepackGames.Net – NASCAR 15 Victory Edition\NASCAR 15 Victory Edition\data\ARCHIVE1467326216.AR
Format : MPEG Audio
File size : 54.8 MiB
Overall bit rate mode : Variable

 

Audio

Format : MPEG Audio
Format version : Version 1
Format profile : Layer 1
Mode : Dual mono
Bit rate mode : Variable
Channel(s) : 2 channels
Sampling rate : 44.1 KHz
Compression mode : Lossy
Stream size : 54.8 MiB (100%)

 

 

 

General

Complete name : F:\Games\RepackGames.Net – NASCAR 15 Victory Edition\NASCAR 15 Victory Edition\data\ARCHIVE2.AR
Format : MPEG Audio
File size : 653 MiB
Overall bit rate mode : Variable

 

Audio

Format : MPEG Audio
Format version : Version 1
Format profile : Layer 1
Mode : Dual mono
Bit rate mode : Variable
Channel(s) : 2 channels
Sampling rate : 44.1 KHz
Compression mode : Lossy
Stream size : 653 MiB (100%)

 

 

 

General

Complete name : F:\Games\RepackGames.Net – NASCAR 15 Victory Edition\NASCAR 15 Victory Edition\data\ARCHIVE3.AR
Format : MPEG Audio
File size : 817 MiB
Overall bit rate mode : Variable

 

Audio

Format : MPEG Audio
Format version : Version 1
Format profile : Layer 1
Mode extension : MS Stereo
Emphasis : 50/15ms
Bit rate mode : Variable
Channel(s) : 2 channels
Sampling rate : 48.0 KHz
Compression mode : Lossy
Stream size : 817 MiB (100%)

 

 

 

General

Complete name : F:\Games\RepackGames.Net – NASCAR 15 Victory Edition\NASCAR 15 Victory Edition\data\ARCHIVE314.AR
File size : 293 KiB

 

 

 

General

Complete name : F:\Games\RepackGames.Net – NASCAR 15 Victory Edition\NASCAR 15 Victory Edition\data\ARCHIVE3464285874.AR
Format : MPEG Audio
File size : 68.5 MiB
Overall bit rate mode : Variable

 

Audio

Format : MPEG Audio
Format version : Version 1
Format profile : Layer 1
Mode : Dual mono
Bit rate mode : Variable
Channel(s) : 2 channels
Sampling rate : 44.1 KHz
Compression mode : Lossy
Stream size : 68.5 MiB (100%)

 

 

 

General

Complete name : F:\Games\RepackGames.Net – NASCAR 15 Victory Edition\NASCAR 15 Victory Edition\data\ARCHIVE3706994145.AR
Format : MPEG Audio
File size : 30.7 MiB
Overall bit rate mode : Variable

 

Audio

Format : MPEG Audio
Format version : Version 1
Format profile : Layer 1
Mode : Dual mono
Bit rate mode : Variable
Channel(s) : 2 channels
Sampling rate : 44.1 KHz
Compression mode : Lossy
Stream size : 30.7 MiB (100%)

 

 

 

General

Complete name : F:\Games\RepackGames.Net – NASCAR 15 Victory Edition\NASCAR 15 Victory Edition\data\ARCHIVE4.AR
Format : MPEG Audio
File size : 1.02 GiB
Duration : 7s 114ms
Overall bit rate mode : Constant
Overall bit rate : 32.0 Kbps

 

Audio

Format : MPEG Audio
Format version : Version 1
Format profile : Layer 1
Mode extension : MS Stereo
Emphasis : CCITT
Duration : 7s 740ms
Bit rate mode : Constant
Bit rate : 32.0 Kbps
Channel(s) : 2 channels
Sampling rate : 44.1 KHz
Compression mode : Lossy
Stream size : 27.8 KiB (0%)

 

 

 

General

Complete name : F:\Games\RepackGames.Net – NASCAR 15 Victory Edition\NASCAR 15 Victory Edition\data\ARCHIVE5.AR
Format : MPEG Audio
File size : 959 MiB
Overall bit rate mode : Variable

 

Audio

Format : MPEG Audio
Format version : Version 1
Format profile : Layer 1
Mode extension : Intensity Stereo
Emphasis : 50/15ms
Bit rate mode : Variable
Channel(s) : 1 channel
Sampling rate : 32.0 KHz
Compression mode : Lossy
Stream size : 959 MiB (100%)

 

 

 

General

Complete name : F:\Games\RepackGames.Net – NASCAR 15 Victory Edition\NASCAR 15 Victory Edition\data\ARCHIVE544386974.AR
Format : MPEG Audio
File size : 123 MiB
Overall bit rate mode : Variable

 

Audio

Format : MPEG Audio
Format version : Version 1
Format profile : Layer 1
Mode : Dual mono
Bit rate mode : Variable
Channel(s) : 2 channels
Sampling rate : 44.1 KHz
Compression mode : Lossy
Stream size : 123 MiB (100%)

 

 

 

General

Complete name : F:\Games\RepackGames.Net – NASCAR 15 Victory Edition\NASCAR 15 Victory Edition\data\ARCHIVE6.AR
Format : MPEG Audio
File size : 1.23 GiB
Overall bit rate mode : Variable

 

Audio

Format : MPEG Audio
Format version : Version 1
Format profile : Layer 1
Emphasis : CCITT
Bit rate mode : Variable
Channel(s) : 1 channel
Sampling rate : 32.0 KHz
Compression mode : Lossy
Stream size : 1.23 GiB (100%)

 

 

 

General

Complete name : F:\Games\RepackGames.Net – NASCAR 15 Victory Edition\NASCAR 15 Victory Edition\data\ARCHIVE7.AR
Format : MPEG Audio
File size : 285 MiB
Overall bit rate mode : Variable

 

Audio

Format : MPEG Audio
Format version : Version 1
Format profile : Layer 1
Mode extension : Intensity Stereo + MS Stereo
Emphasis : CCITT
Bit rate mode : Variable
Channel(s) : 2 channels
Sampling rate : 32.0 KHz
Compression mode : Lossy
Stream size : 285 MiB (100%)

 

 

 

General

Complete name : F:\Games\RepackGames.Net – NASCAR 15 Victory Edition\NASCAR 15 Victory Edition\data\cdfiles.dat
File size : 143 KiB

 

 

 

General

Complete name : F:\Games\RepackGames.Net – NASCAR 15 Victory Edition\NASCAR 15 Victory Edition\data\cdfiles1.dat
File size : 79.8 KiB

 

 

 

General

Complete name : F:\Games\RepackGames.Net – NASCAR 15 Victory Edition\NASCAR 15 Victory Edition\data\cdfiles1467326216.dat
File size : 4.21 KiB

 

 

 

General

Complete name : F:\Games\RepackGames.Net – NASCAR 15 Victory Edition\NASCAR 15 Victory Edition\data\cdfiles2.dat
File size : 20.5 KiB

 

 

 

General

Complete name : F:\Games\RepackGames.Net – NASCAR 15 Victory Edition\NASCAR 15 Victory Edition\data\cdfiles3.dat
File size : 47.3 KiB

 

 

 

General

Complete name : F:\Games\RepackGames.Net – NASCAR 15 Victory Edition\NASCAR 15 Victory Edition\data\cdfiles314.dat
File size : 3.31 KiB

 

 

 

General

Complete name : F:\Games\RepackGames.Net – NASCAR 15 Victory Edition\NASCAR 15 Victory Edition\data\cdfiles3464285874.dat
File size : 5.14 KiB

 

 

 

General

Complete name : F:\Games\RepackGames.Net – NASCAR 15 Victory Edition\NASCAR 15 Victory Edition\data\cdfiles3706994145.dat
File size : 2.41 KiB

 

 

 

General

Complete name : F:\Games\RepackGames.Net – NASCAR 15 Victory Edition\NASCAR 15 Victory Edition\data\cdfiles4.dat
File size : 4.98 KiB

 

 

 

General

Complete name : F:\Games\RepackGames.Net – NASCAR 15 Victory Edition\NASCAR 15 Victory Edition\data\cdfiles5.dat
File size : 3.97 KiB

 

 

 

General

Complete name : F:\Games\RepackGames.Net – NASCAR 15 Victory Edition\NASCAR 15 Victory Edition\data\cdfiles544386974.dat
File size : 8.77 KiB

 

 

 

General

Complete name : F:\Games\RepackGames.Net – NASCAR 15 Victory Edition\NASCAR 15 Victory Edition\data\cdfiles6.dat
File size : 5.69 KiB

 

 

 

General

Complete name : F:\Games\RepackGames.Net – NASCAR 15 Victory Edition\NASCAR 15 Victory Edition\data\cdfiles7.dat
File size : 1.80 KiB

 

 

 

General

Complete name : F:\Games\RepackGames.Net – NASCAR 15 Victory Edition\NASCAR 15 Victory Edition\unins000.dat
File size : 92.3 KiB

 

 

 

General

Complete name : F:\Games\RepackGames.Net – NASCAR 15 Victory Edition\NASCAR 15 Victory Edition\unins000.exe
Format : MZ
Format profile : Executable / Intel i386
File size : 1.51 MiB
Encoded date : UTC 2012-10-02 05:03:49

 

 

 

General

Complete name : F:\Games\RepackGames.Net – NASCAR 15 Victory Edition\NASCAR 15 Victory Edition\_CommonRedist\DirectX\Jun2010\Apr2005_d3dx9_25_x64.cab
File size : 1.28 MiB

 

 

 

General

Complete name : F:\Games\RepackGames.Net – NASCAR 15 Victory Edition\NASCAR 15 Victory Edition\_CommonRedist\DirectX\Jun2010\Apr2005_d3dx9_25_x86.cab
File size : 1.03 MiB

 

 

 

General

Complete name : F:\Games\RepackGames.Net – NASCAR 15 Victory Edition\NASCAR 15 Victory Edition\_CommonRedist\DirectX\Jun2010\Apr2006_d3dx9_30_x64.cab
File size : 1.33 MiB

 

 

 

General

Complete name : F:\Games\RepackGames.Net – NASCAR 15 Victory Edition\NASCAR 15 Victory Edition\_CommonRedist\DirectX\Jun2010\Apr2006_d3dx9_30_x86.cab
File size : 1.06 MiB

 

 

 

General

Complete name : F:\Games\RepackGames.Net – NASCAR 15 Victory Edition\NASCAR 15 Victory Edition\_CommonRedist\DirectX\Jun2010\Apr2006_MDX1_x86.cab
File size : 895 KiB

 

 

 

General

Complete name : F:\Games\RepackGames.Net – NASCAR 15 Victory Edition\NASCAR 15 Victory Edition\_CommonRedist\DirectX\Jun2010\Apr2006_MDX1_x86_Archive.cab
File size : 3.97 MiB

 

 

 

General

Complete name : F:\Games\RepackGames.Net – NASCAR 15 Victory Edition\NASCAR 15 Victory Edition\_CommonRedist\DirectX\Jun2010\Apr2006_XACT_x64.cab
File size : 175 KiB

 

 

 

General

Complete name : F:\Games\RepackGames.Net – NASCAR 15 Victory Edition\NASCAR 15 Victory Edition\_CommonRedist\DirectX\Jun2010\Apr2006_XACT_x86.cab
File size : 130 KiB

 

 

 

General

Complete name : F:\Games\RepackGames.Net – NASCAR 15 Victory Edition\NASCAR 15 Victory Edition\_CommonRedist\DirectX\Jun2010\Apr2006_xinput_x64.cab
File size : 85.1 KiB

 

 

 

General

Complete name : F:\Games\RepackGames.Net – NASCAR 15 Victory Edition\NASCAR 15 Victory Edition\_CommonRedist\DirectX\Jun2010\Apr2006_xinput_x86.cab
File size : 44.9 KiB

 

 

 

General

Complete name : F:\Games\RepackGames.Net – NASCAR 15 Victory Edition\NASCAR 15 Victory Edition\_CommonRedist\DirectX\Jun2010\APR2007_d3dx10_33_x64.cab
File size : 682 KiB

 

 

 

General

Complete name : F:\Games\RepackGames.Net – NASCAR 15 Victory Edition\NASCAR 15 Victory Edition\_CommonRedist\DirectX\Jun2010\APR2007_d3dx10_33_x86.cab
File size : 680 KiB

 

 

 

General

Complete name : F:\Games\RepackGames.Net – NASCAR 15 Victory Edition\NASCAR 15 Victory Edition\_CommonRedist\DirectX\Jun2010\APR2007_d3dx9_33_x64.cab
File size : 1.53 MiB

 

 

 

General

Complete name : F:\Games\RepackGames.Net – NASCAR 15 Victory Edition\NASCAR 15 Victory Edition\_CommonRedist\DirectX\Jun2010\APR2007_d3dx9_33_x86.cab
File size : 1.53 MiB

 

 

 

General

Complete name : F:\Games\RepackGames.Net – NASCAR 15 Victory Edition\NASCAR 15 Victory Edition\_CommonRedist\DirectX\Jun2010\APR2007_XACT_x64.cab
File size : 191 KiB

 

 

 

General

Complete name : F:\Games\RepackGames.Net – NASCAR 15 Victory Edition\NASCAR 15 Victory Edition\_CommonRedist\DirectX\Jun2010\APR2007_XACT_x86.cab
File size : 148 KiB

 

 

 

General

Complete name : F:\Games\RepackGames.Net – NASCAR 15 Victory Edition\NASCAR 15 Victory Edition\_CommonRedist\DirectX\Jun2010\APR2007_xinput_x64.cab
File size : 94.5 KiB

 

 

 

General

Complete name : F:\Games\RepackGames.Net – NASCAR 15 Victory Edition\NASCAR 15 Victory Edition\_CommonRedist\DirectX\Jun2010\APR2007_xinput_x86.cab
File size : 52.1 KiB

 

 

 

General

Complete name : F:\Games\RepackGames.Net – NASCAR 15 Victory Edition\NASCAR 15 Victory Edition\_CommonRedist\DirectX\Jun2010\Aug2005_d3dx9_27_x64.cab
File size : 1.29 MiB

 

 

 

General

Complete name : F:\Games\RepackGames.Net – NASCAR 15 Victory Edition\NASCAR 15 Victory Edition\_CommonRedist\DirectX\Jun2010\Aug2005_d3dx9_27_x86.cab
File size : 1.03 MiB

 

 

 

General

Complete name : F:\Games\RepackGames.Net – NASCAR 15 Victory Edition\NASCAR 15 Victory Edition\_CommonRedist\DirectX\Jun2010\AUG2006_XACT_x64.cab
File size : 179 KiB

 

 

 

General

Complete name : F:\Games\RepackGames.Net – NASCAR 15 Victory Edition\NASCAR 15 Victory Edition\_CommonRedist\DirectX\Jun2010\AUG2006_XACT_x86.cab
File size : 134 KiB

 

 

 

General

Complete name : F:\Games\RepackGames.Net – NASCAR 15 Victory Edition\NASCAR 15 Victory Edition\_CommonRedist\DirectX\Jun2010\AUG2006_xinput_x64.cab
File size : 85.1 KiB

 

 

 

General

Complete name : F:\Games\RepackGames.Net – NASCAR 15 Victory Edition\NASCAR 15 Victory Edition\_CommonRedist\DirectX\Jun2010\AUG2006_xinput_x86.cab
File size : 45.0 KiB

 

 

 

General

Complete name : F:\Games\RepackGames.Net – NASCAR 15 Victory Edition\NASCAR 15 Victory Edition\_CommonRedist\DirectX\Jun2010\AUG2007_d3dx10_35_x64.cab
File size : 832 KiB

 

 

 

General

Complete name : F:\Games\RepackGames.Net – NASCAR 15 Victory Edition\NASCAR 15 Victory Edition\_CommonRedist\DirectX\Jun2010\AUG2007_d3dx10_35_x86.cab
File size : 778 KiB

 

 

 

General

Complete name : F:\Games\RepackGames.Net – NASCAR 15 Victory Edition\NASCAR 15 Victory Edition\_CommonRedist\DirectX\Jun2010\AUG2007_d3dx9_35_x64.cab
File size : 1.72 MiB

 

 

 

General

Complete name : F:\Games\RepackGames.Net – NASCAR 15 Victory Edition\NASCAR 15 Victory Edition\_CommonRedist\DirectX\Jun2010\AUG2007_d3dx9_35_x86.cab
File size : 1.63 MiB

 

 

 

General

Complete name : F:\Games\RepackGames.Net – NASCAR 15 Victory Edition\NASCAR 15 Victory Edition\_CommonRedist\DirectX\Jun2010\AUG2007_XACT_x64.cab
File size : 193 KiB

 

 

 

General

Complete name : F:\Games\RepackGames.Net – NASCAR 15 Victory Edition\NASCAR 15 Victory Edition\_CommonRedist\DirectX\Jun2010\AUG2007_XACT_x86.cab
File size : 149 KiB

 

 

 

General

Complete name : F:\Games\RepackGames.Net – NASCAR 15 Victory Edition\NASCAR 15 Victory Edition\_CommonRedist\DirectX\Jun2010\Aug2008_d3dx10_39_x64.cab
File size : 847 KiB

 

 

 

General

Complete name : F:\Games\RepackGames.Net – NASCAR 15 Victory Edition\NASCAR 15 Victory Edition\_CommonRedist\DirectX\Jun2010\Aug2008_d3dx10_39_x86.cab
File size : 829 KiB

 

 

 

General

Complete name : F:\Games\RepackGames.Net – NASCAR 15 Victory Edition\NASCAR 15 Victory Edition\_CommonRedist\DirectX\Jun2010\Aug2008_d3dx9_39_x64.cab
File size : 1.71 MiB

 

 

 

General

Complete name : F:\Games\RepackGames.Net – NASCAR 15 Victory Edition\NASCAR 15 Victory Edition\_CommonRedist\DirectX\Jun2010\Aug2008_d3dx9_39_x86.cab
File size : 1.40 MiB

 

 

 

General

Complete name : F:\Games\RepackGames.Net – NASCAR 15 Victory Edition\NASCAR 15 Victory Edition\_CommonRedist\DirectX\Jun2010\Aug2008_XACT_x64.cab
File size : 119 KiB

 

 

 

General

Complete name : F:\Games\RepackGames.Net – NASCAR 15 Victory Edition\NASCAR 15 Victory Edition\_CommonRedist\DirectX\Jun2010\Aug2008_XACT_x86.cab
File size : 90.8 KiB

 

 

 

General

Complete name : F:\Games\RepackGames.Net – NASCAR 15 Victory Edition\NASCAR 15 Victory Edition\_CommonRedist\DirectX\Jun2010\Aug2008_XAudio_x64.cab
File size : 265 KiB

 

 

 

General

Complete name : F:\Games\RepackGames.Net – NASCAR 15 Victory Edition\NASCAR 15 Victory Edition\_CommonRedist\DirectX\Jun2010\Aug2008_XAudio_x86.cab
File size : 265 KiB

 

 

 

General

Complete name : F:\Games\RepackGames.Net – NASCAR 15 Victory Edition\NASCAR 15 Victory Edition\_CommonRedist\DirectX\Jun2010\Aug2009_D3DCompiler_42_x64.cab
File size : 898 KiB

 

 

 

General

Complete name : F:\Games\RepackGames.Net – NASCAR 15 Victory Edition\NASCAR 15 Victory Edition\_CommonRedist\DirectX\Jun2010\Aug2009_D3DCompiler_42_x86.cab
File size : 879 KiB

 

 

 

General

Complete name : F:\Games\RepackGames.Net – NASCAR 15 Victory Edition\NASCAR 15 Victory Edition\_CommonRedist\DirectX\Jun2010\Aug2009_d3dcsx_42_x64.cab
File size : 2.97 MiB

 

 

 

General

Complete name : F:\Games\RepackGames.Net – NASCAR 15 Victory Edition\NASCAR 15 Victory Edition\_CommonRedist\DirectX\Jun2010\Aug2009_d3dcsx_42_x86.cab
File size : 3.17 MiB

 

 

 

General

Complete name : F:\Games\RepackGames.Net – NASCAR 15 Victory Edition\NASCAR 15 Victory Edition\_CommonRedist\DirectX\Jun2010\Aug2009_d3dx10_42_x64.cab
File size : 227 KiB

 

 

 

General

Complete name : F:\Games\RepackGames.Net – NASCAR 15 Victory Edition\NASCAR 15 Victory Edition\_CommonRedist\DirectX\Jun2010\Aug2009_d3dx10_42_x86.cab
File size : 188 KiB

 

 

 

General

Complete name : F:\Games\RepackGames.Net – NASCAR 15 Victory Edition\NASCAR 15 Victory Edition\_CommonRedist\DirectX\Jun2010\Aug2009_d3dx11_42_x64.cab
File size : 133 KiB

 

 

 

General

Complete name : F:\Games\RepackGames.Net – NASCAR 15 Victory Edition\NASCAR 15 Victory Edition\_CommonRedist\DirectX\Jun2010\Aug2009_d3dx11_42_x86.cab
File size : 103 KiB

 

 

 

General

Complete name : F:\Games\RepackGames.Net – NASCAR 15 Victory Edition\NASCAR 15 Victory Edition\_CommonRedist\DirectX\Jun2010\Aug2009_d3dx9_42_x64.cab
File size : 908 KiB

 

 

 

General

Complete name : F:\Games\RepackGames.Net – NASCAR 15 Victory Edition\NASCAR 15 Victory Edition\_CommonRedist\DirectX\Jun2010\Aug2009_d3dx9_42_x86.cab
File size : 711 KiB

 

 

 

General

Complete name : F:\Games\RepackGames.Net – NASCAR 15 Victory Edition\NASCAR 15 Victory Edition\_CommonRedist\DirectX\Jun2010\Aug2009_XACT_x64.cab
File size : 120 KiB

 

 

 

General

Complete name : F:\Games\RepackGames.Net – NASCAR 15 Victory Edition\NASCAR 15 Victory Edition\_CommonRedist\DirectX\Jun2010\Aug2009_XACT_x86.cab
File size : 90.9 KiB

 

 

 

General

Complete name : F:\Games\RepackGames.Net – NASCAR 15 Victory Edition\NASCAR 15 Victory Edition\_CommonRedist\DirectX\Jun2010\Aug2009_XAudio_x64.cab
File size : 267 KiB

 

 

 

General

Complete name : F:\Games\RepackGames.Net – NASCAR 15 Victory Edition\NASCAR 15 Victory Edition\_CommonRedist\DirectX\Jun2010\Aug2009_XAudio_x86.cab
File size : 266 KiB

 

 

 

General

Complete name : F:\Games\RepackGames.Net – NASCAR 15 Victory Edition\NASCAR 15 Victory Edition\_CommonRedist\DirectX\Jun2010\Dec2005_d3dx9_28_x64.cab
File size : 1.30 MiB

 

 

 

General

Complete name : F:\Games\RepackGames.Net – NASCAR 15 Victory Edition\NASCAR 15 Victory Edition\_CommonRedist\DirectX\Jun2010\Dec2005_d3dx9_28_x86.cab
File size : 1.03 MiB

 

 

 

General

Complete name : F:\Games\RepackGames.Net – NASCAR 15 Victory Edition\NASCAR 15 Victory Edition\_CommonRedist\DirectX\Jun2010\DEC2006_d3dx10_00_x64.cab
File size : 208 KiB

 

 

 

General

Complete name : F:\Games\RepackGames.Net – NASCAR 15 Victory Edition\NASCAR 15 Victory Edition\_CommonRedist\DirectX\Jun2010\DEC2006_d3dx10_00_x86.cab
File size : 187 KiB

 

 

 

General

Complete name : F:\Games\RepackGames.Net – NASCAR 15 Victory Edition\NASCAR 15 Victory Edition\_CommonRedist\DirectX\Jun2010\DEC2006_d3dx9_32_x64.cab
File size : 1.50 MiB

 

 

 

General

Complete name : F:\Games\RepackGames.Net – NASCAR 15 Victory Edition\NASCAR 15 Victory Edition\_CommonRedist\DirectX\Jun2010\DEC2006_d3dx9_32_x86.cab
File size : 1.50 MiB

 

 

 

General

Complete name : F:\Games\RepackGames.Net – NASCAR 15 Victory Edition\NASCAR 15 Victory Edition\_CommonRedist\DirectX\Jun2010\DEC2006_XACT_x64.cab
File size : 188 KiB

 

 

 

General

Complete name : F:\Games\RepackGames.Net – NASCAR 15 Victory Edition\NASCAR 15 Victory Edition\_CommonRedist\DirectX\Jun2010\DEC2006_XACT_x86.cab
File size : 142 KiB

 

 

 

General

Complete name : F:\Games\RepackGames.Net – NASCAR 15 Victory Edition\NASCAR 15 Victory Edition\_CommonRedist\DirectX\Jun2010\DSETUP.dll
Format : MZ
Format profile : DLL / Intel i386
File size : 93.3 KiB
Encoded date : UTC 2011-03-30 11:39:58

 

 

 

General

Complete name : F:\Games\RepackGames.Net – NASCAR 15 Victory Edition\NASCAR 15 Victory Edition\_CommonRedist\DirectX\Jun2010\dsetup32.dll
Format : MZ
Format profile : DLL / Intel i386
File size : 1.49 MiB
Encoded date : UTC 2011-03-30 11:39:58

 

 

 

General

Complete name : F:\Games\RepackGames.Net – NASCAR 15 Victory Edition\NASCAR 15 Victory Edition\_CommonRedist\DirectX\Jun2010\dxdllreg_x86.cab
File size : 43.6 KiB

 

 

 

General

Complete name : F:\Games\RepackGames.Net – NASCAR 15 Victory Edition\NASCAR 15 Victory Edition\_CommonRedist\DirectX\Jun2010\DXSETUP.exe
Format : MZ
Format profile : Executable / Intel i386
File size : 506 KiB
Encoded date : UTC 2011-03-30 11:40:00

 

 

 

General

Complete name : F:\Games\RepackGames.Net – NASCAR 15 Victory Edition\NASCAR 15 Victory Edition\_CommonRedist\DirectX\Jun2010\dxupdate.cab
File size : 94.9 KiB

 

 

 

General

Complete name : F:\Games\RepackGames.Net – NASCAR 15 Victory Edition\NASCAR 15 Victory Edition\_CommonRedist\DirectX\Jun2010\Feb2005_d3dx9_24_x64.cab
File size : 1.19 MiB

 

 

 

General

Complete name : F:\Games\RepackGames.Net – NASCAR 15 Victory Edition\NASCAR 15 Victory Edition\_CommonRedist\DirectX\Jun2010\Feb2005_d3dx9_24_x86.cab
File size : 989 KiB

 

 

 

General

Complete name : F:\Games\RepackGames.Net – NASCAR 15 Victory Edition\NASCAR 15 Victory Edition\_CommonRedist\DirectX\Jun2010\Feb2006_d3dx9_29_x64.cab
File size : 1.30 MiB

 

 

 

General

Complete name : F:\Games\RepackGames.Net – NASCAR 15 Victory Edition\NASCAR 15 Victory Edition\_CommonRedist\DirectX\Jun2010\Feb2006_d3dx9_29_x86.cab
File size : 1.03 MiB

 

 

 

General

Complete name : F:\Games\RepackGames.Net – NASCAR 15 Victory Edition\NASCAR 15 Victory Edition\_CommonRedist\DirectX\Jun2010\Feb2006_XACT_x64.cab
File size : 174 KiB

 

 

 

General

Complete name : F:\Games\RepackGames.Net – NASCAR 15 Victory Edition\NASCAR 15 Victory Edition\_CommonRedist\DirectX\Jun2010\Feb2006_XACT_x86.cab
File size : 129 KiB

 

 

 

General

Complete name : F:\Games\RepackGames.Net – NASCAR 15 Victory Edition\NASCAR 15 Victory Edition\_CommonRedist\DirectX\Jun2010\FEB2007_XACT_x64.cab
File size : 190 KiB

 

 

 

General

Complete name : F:\Games\RepackGames.Net – NASCAR 15 Victory Edition\NASCAR 15 Victory Edition\_CommonRedist\DirectX\Jun2010\FEB2007_XACT_x86.cab
File size : 145 KiB

 

 

 

General

Complete name : F:\Games\RepackGames.Net – NASCAR 15 Victory Edition\NASCAR 15 Victory Edition\_CommonRedist\DirectX\Jun2010\Feb2010_X3DAudio_x64.cab
File size : 53.4 KiB

 

 

 

General

Complete name : F:\Games\RepackGames.Net – NASCAR 15 Victory Edition\NASCAR 15 Victory Edition\_CommonRedist\DirectX\Jun2010\Feb2010_X3DAudio_x86.cab
File size : 20.2 KiB

 

 

 

General

Complete name : F:\Games\RepackGames.Net – NASCAR 15 Victory Edition\NASCAR 15 Victory Edition\_CommonRedist\DirectX\Jun2010\Feb2010_XACT_x64.cab
File size : 120 KiB

 

 

 

General

Complete name : F:\Games\RepackGames.Net – NASCAR 15 Victory Edition\NASCAR 15 Victory Edition\_CommonRedist\DirectX\Jun2010\Feb2010_XACT_x86.cab
File size : 91.0 KiB

 

 

 

General

Complete name : F:\Games\RepackGames.Net – NASCAR 15 Victory Edition\NASCAR 15 Victory Edition\_CommonRedist\DirectX\Jun2010\Feb2010_XAudio_x64.cab
File size : 270 KiB

 

 

 

General

Complete name : F:\Games\RepackGames.Net – NASCAR 15 Victory Edition\NASCAR 15 Victory Edition\_CommonRedist\DirectX\Jun2010\Feb2010_XAudio_x86.cab
File size : 271 KiB

 

 

 

General

Complete name : F:\Games\RepackGames.Net – NASCAR 15 Victory Edition\NASCAR 15 Victory Edition\_CommonRedist\DirectX\Jun2010\installscript.vdf
File size : 596 Bytes

 

 

 

General

Complete name : F:\Games\RepackGames.Net – NASCAR 15 Victory Edition\NASCAR 15 Victory Edition\_CommonRedist\DirectX\Jun2010\Jun2005_d3dx9_26_x64.cab
File size : 1.27 MiB

 

 

 

General

Complete name : F:\Games\RepackGames.Net – NASCAR 15 Victory Edition\NASCAR 15 Victory Edition\_CommonRedist\DirectX\Jun2010\Jun2005_d3dx9_26_x86.cab
File size : 1.02 MiB

 

 

 

General

Complete name : F:\Games\RepackGames.Net – NASCAR 15 Victory Edition\NASCAR 15 Victory Edition\_CommonRedist\DirectX\Jun2010\JUN2006_XACT_x64.cab
File size : 177 KiB

 

 

 

General

Complete name : F:\Games\RepackGames.Net – NASCAR 15 Victory Edition\NASCAR 15 Victory Edition\_CommonRedist\DirectX\Jun2010\JUN2006_XACT_x86.cab
File size : 131 KiB

 

 

 

General

Complete name : F:\Games\RepackGames.Net – NASCAR 15 Victory Edition\NASCAR 15 Victory Edition\_CommonRedist\DirectX\Jun2010\JUN2007_d3dx10_34_x64.cab
File size : 683 KiB

 

 

 

General

Complete name : F:\Games\RepackGames.Net – NASCAR 15 Victory Edition\NASCAR 15 Victory Edition\_CommonRedist\DirectX\Jun2010\JUN2007_d3dx10_34_x86.cab
File size : 682 KiB

 

 

 

General

Complete name : F:\Games\RepackGames.Net – NASCAR 15 Victory Edition\NASCAR 15 Victory Edition\_CommonRedist\DirectX\Jun2010\JUN2007_d3dx9_34_x64.cab
File size : 1.53 MiB

 

 

 

General

Complete name : F:\Games\RepackGames.Net – NASCAR 15 Victory Edition\NASCAR 15 Victory Edition\_CommonRedist\DirectX\Jun2010\JUN2007_d3dx9_34_x86.cab
File size : 1.53 MiB

 

 

 

General

Complete name : F:\Games\RepackGames.Net – NASCAR 15 Victory Edition\NASCAR 15 Victory Edition\_CommonRedist\DirectX\Jun2010\JUN2007_XACT_x64.cab
File size : 193 KiB

 

 

 

General

Complete name : F:\Games\RepackGames.Net – NASCAR 15 Victory Edition\NASCAR 15 Victory Edition\_CommonRedist\DirectX\Jun2010\JUN2007_XACT_x86.cab
File size : 149 KiB

 

 

 

General

Complete name : F:\Games\RepackGames.Net – NASCAR 15 Victory Edition\NASCAR 15 Victory Edition\_CommonRedist\DirectX\Jun2010\JUN2008_d3dx10_38_x64.cab
File size : 847 KiB

 

 

 

General

Complete name : F:\Games\RepackGames.Net – NASCAR 15 Victory Edition\NASCAR 15 Victory Edition\_CommonRedist\DirectX\Jun2010\JUN2008_d3dx10_38_x86.cab
File size : 830 KiB

 

 

 

General

Complete name : F:\Games\RepackGames.Net – NASCAR 15 Victory Edition\NASCAR 15 Victory Edition\_CommonRedist\DirectX\Jun2010\JUN2008_d3dx9_38_x64.cab
File size : 1.71 MiB

 

 

 

General

Complete name : F:\Games\RepackGames.Net – NASCAR 15 Victory Edition\NASCAR 15 Victory Edition\_CommonRedist\DirectX\Jun2010\JUN2008_d3dx9_38_x86.cab
File size : 1.40 MiB

 

 

 

General

Complete name : F:\Games\RepackGames.Net – NASCAR 15 Victory Edition\NASCAR 15 Victory Edition\_CommonRedist\DirectX\Jun2010\JUN2008_X3DAudio_x64.cab
File size : 53.9 KiB

 

 

 

General

Complete name : F:\Games\RepackGames.Net – NASCAR 15 Victory Edition\NASCAR 15 Victory Edition\_CommonRedist\DirectX\Jun2010\JUN2008_X3DAudio_x86.cab
File size : 21.4 KiB

 

 

 

General

Complete name : F:\Games\RepackGames.Net – NASCAR 15 Victory Edition\NASCAR 15 Victory Edition\_CommonRedist\DirectX\Jun2010\JUN2008_XACT_x64.cab
File size : 118 KiB

 

 

 

General

Complete name : F:\Games\RepackGames.Net – NASCAR 15 Victory Edition\NASCAR 15 Victory Edition\_CommonRedist\DirectX\Jun2010\JUN2008_XACT_x86.cab
File size : 90.9 KiB

 

 

 

General

Complete name : F:\Games\RepackGames.Net – NASCAR 15 Victory Edition\NASCAR 15 Victory Edition\_CommonRedist\DirectX\Jun2010\JUN2008_XAudio_x64.cab
File size : 263 KiB

 

 

 

General

Complete name : F:\Games\RepackGames.Net – NASCAR 15 Victory Edition\NASCAR 15 Victory Edition\_CommonRedist\DirectX\Jun2010\JUN2008_XAudio_x86.cab
File size : 263 KiB

 

 

 

General

Complete name : F:\Games\RepackGames.Net – NASCAR 15 Victory Edition\NASCAR 15 Victory Edition\_CommonRedist\DirectX\Jun2010\Jun2010_D3DCompiler_43_x64.cab
File size : 922 KiB

 

 

 

General

Complete name : F:\Games\RepackGames.Net – NASCAR 15 Victory Edition\NASCAR 15 Victory Edition\_CommonRedist\DirectX\Jun2010\Jun2010_D3DCompiler_43_x86.cab
File size : 910 KiB

 

 

 

General

Complete name : F:\Games\RepackGames.Net – NASCAR 15 Victory Edition\NASCAR 15 Victory Edition\_CommonRedist\DirectX\Jun2010\Jun2010_d3dcsx_43_x64.cab
File size : 735 KiB

 

 

 

General

Complete name : F:\Games\RepackGames.Net – NASCAR 15 Victory Edition\NASCAR 15 Victory Edition\_CommonRedist\DirectX\Jun2010\Jun2010_d3dcsx_43_x86.cab
File size : 744 KiB

 

 

 

General

Complete name : F:\Games\RepackGames.Net – NASCAR 15 Victory Edition\NASCAR 15 Victory Edition\_CommonRedist\DirectX\Jun2010\Jun2010_d3dx10_43_x64.cab
File size : 230 KiB

 

 

 

General

Complete name : F:\Games\RepackGames.Net – NASCAR 15 Victory Edition\NASCAR 15 Victory Edition\_CommonRedist\DirectX\Jun2010\Jun2010_d3dx10_43_x86.cab
File size : 193 KiB

 

 

 

General

Complete name : F:\Games\RepackGames.Net – NASCAR 15 Victory Edition\NASCAR 15 Victory Edition\_CommonRedist\DirectX\Jun2010\Jun2010_d3dx11_43_x64.cab
File size : 135 KiB

 

 

 

General

Complete name : F:\Games\RepackGames.Net – NASCAR 15 Victory Edition\NASCAR 15 Victory Edition\_CommonRedist\DirectX\Jun2010\Jun2010_d3dx11_43_x86.cab
File size : 107 KiB

 

 

 

General

Complete name : F:\Games\RepackGames.Net – NASCAR 15 Victory Edition\NASCAR 15 Victory Edition\_CommonRedist\DirectX\Jun2010\Jun2010_d3dx9_43_x64.cab
File size : 915 KiB

 

 

 

General

Complete name : F:\Games\RepackGames.Net – NASCAR 15 Victory Edition\NASCAR 15 Victory Edition\_CommonRedist\DirectX\Jun2010\Jun2010_d3dx9_43_x86.cab
File size : 750 KiB

 

 

 

General

Complete name : F:\Games\RepackGames.Net – NASCAR 15 Victory Edition\NASCAR 15 Victory Edition\_CommonRedist\DirectX\Jun2010\Jun2010_XACT_x64.cab
File size : 122 KiB

 

 

 

General

Complete name : F:\Games\RepackGames.Net – NASCAR 15 Victory Edition\NASCAR 15 Victory Edition\_CommonRedist\DirectX\Jun2010\Jun2010_XACT_x86.cab
File size : 91.5 KiB

 

 

 

General

Complete name : F:\Games\RepackGames.Net – NASCAR 15 Victory Edition\NASCAR 15 Victory Edition\_CommonRedist\DirectX\Jun2010\Jun2010_XAudio_x64.cab
File size : 271 KiB

 

 

 

General

Complete name : F:\Games\RepackGames.Net – NASCAR 15 Victory Edition\NASCAR 15 Victory Edition\_CommonRedist\DirectX\Jun2010\Jun2010_XAudio_x86.cab
File size : 272 KiB

 

 

 

General

Complete name : F:\Games\RepackGames.Net – NASCAR 15 Victory Edition\NASCAR 15 Victory Edition\_CommonRedist\DirectX\Jun2010\Mar2008_d3dx10_37_x64.cab
File size : 825 KiB

 

 

 

General

Complete name : F:\Games\RepackGames.Net – NASCAR 15 Victory Edition\NASCAR 15 Victory Edition\_CommonRedist\DirectX\Jun2010\Mar2008_d3dx10_37_x86.cab
File size : 799 KiB

 

 

 

General

Complete name : F:\Games\RepackGames.Net – NASCAR 15 Victory Edition\NASCAR 15 Victory Edition\_CommonRedist\DirectX\Jun2010\Mar2008_d3dx9_37_x64.cab
File size : 1.69 MiB

 

 

 

General

Complete name : F:\Games\RepackGames.Net – NASCAR 15 Victory Edition\NASCAR 15 Victory Edition\_CommonRedist\DirectX\Jun2010\Mar2008_d3dx9_37_x86.cab
File size : 1.38 MiB

 

 

 

General

Complete name : F:\Games\RepackGames.Net – NASCAR 15 Victory Edition\NASCAR 15 Victory Edition\_CommonRedist\DirectX\Jun2010\Mar2008_X3DAudio_x64.cab
File size : 53.8 KiB

 

 

 

General

Complete name : F:\Games\RepackGames.Net – NASCAR 15 Victory Edition\NASCAR 15 Victory Edition\_CommonRedist\DirectX\Jun2010\Mar2008_X3DAudio_x86.cab
File size : 21.4 KiB

 

 

 

General

Complete name : F:\Games\RepackGames.Net – NASCAR 15 Victory Edition\NASCAR 15 Victory Edition\_CommonRedist\DirectX\Jun2010\Mar2008_XACT_x64.cab
File size : 119 KiB

 

 

 

General

Complete name : F:\Games\RepackGames.Net – NASCAR 15 Victory Edition\NASCAR 15 Victory Edition\_CommonRedist\DirectX\Jun2010\Mar2008_XACT_x86.cab
File size : 91.5 KiB

 

 

 

General

Complete name : F:\Games\RepackGames.Net – NASCAR 15 Victory Edition\NASCAR 15 Victory Edition\_CommonRedist\DirectX\Jun2010\Mar2008_XAudio_x64.cab
File size : 245 KiB

 

 

 

General

Complete name : F:\Games\RepackGames.Net – NASCAR 15 Victory Edition\NASCAR 15 Victory Edition\_CommonRedist\DirectX\Jun2010\Mar2008_XAudio_x86.cab
File size : 221 KiB

 

 

 

General

Complete name : F:\Games\RepackGames.Net – NASCAR 15 Victory Edition\NASCAR 15 Victory Edition\_CommonRedist\DirectX\Jun2010\Mar2009_d3dx10_41_x64.cab
File size : 1.02 MiB

 

 

 

General

Complete name : F:\Games\RepackGames.Net – NASCAR 15 Victory Edition\NASCAR 15 Victory Edition\_CommonRedist\DirectX\Jun2010\Mar2009_d3dx10_41_x86.cab
File size : 1 016 KiB

 

 

 

General

Complete name : F:\Games\RepackGames.Net – NASCAR 15 Victory Edition\NASCAR 15 Victory Edition\_CommonRedist\DirectX\Jun2010\Mar2009_d3dx9_41_x64.cab
File size : 1.88 MiB

 

 

 

General

Complete name : F:\Games\RepackGames.Net – NASCAR 15 Victory Edition\NASCAR 15 Victory Edition\_CommonRedist\DirectX\Jun2010\Mar2009_d3dx9_41_x86.cab
File size : 1.54 MiB

 

 

 

General

Complete name : F:\Games\RepackGames.Net – NASCAR 15 Victory Edition\NASCAR 15 Victory Edition\_CommonRedist\DirectX\Jun2010\Mar2009_X3DAudio_x64.cab
File size : 53.3 KiB

 

 

 

General

Complete name : F:\Games\RepackGames.Net – NASCAR 15 Victory Edition\NASCAR 15 Victory Edition\_CommonRedist\DirectX\Jun2010\Mar2009_X3DAudio_x86.cab
File size : 20.8 KiB

 

 

 

General

Complete name : F:\Games\RepackGames.Net – NASCAR 15 Victory Edition\NASCAR 15 Victory Edition\_CommonRedist\DirectX\Jun2010\Mar2009_XACT_x64.cab
File size : 119 KiB

 

 

 

General

Complete name : F:\Games\RepackGames.Net – NASCAR 15 Victory Edition\NASCAR 15 Victory Edition\_CommonRedist\DirectX\Jun2010\Mar2009_XACT_x86.cab
File size : 90.6 KiB

 

 

 

General

Complete name : F:\Games\RepackGames.Net – NASCAR 15 Victory Edition\NASCAR 15 Victory Edition\_CommonRedist\DirectX\Jun2010\Mar2009_XAudio_x64.cab
File size : 269 KiB

 

 

 

General

Complete name : F:\Games\RepackGames.Net – NASCAR 15 Victory Edition\NASCAR 15 Victory Edition\_CommonRedist\DirectX\Jun2010\Mar2009_XAudio_x86.cab
File size : 267 KiB

 

 

 

General

Complete name : F:\Games\RepackGames.Net – NASCAR 15 Victory Edition\NASCAR 15 Victory Edition\_CommonRedist\DirectX\Jun2010\Nov2007_d3dx10_36_x64.cab
File size : 844 KiB

 

 

 

General

Complete name : F:\Games\RepackGames.Net – NASCAR 15 Victory Edition\NASCAR 15 Victory Edition\_CommonRedist\DirectX\Jun2010\Nov2007_d3dx10_36_x86.cab
File size : 785 KiB

 

 

 

General

Complete name : F:\Games\RepackGames.Net – NASCAR 15 Victory Edition\NASCAR 15 Victory Edition\_CommonRedist\DirectX\Jun2010\Nov2007_d3dx9_36_x64.cab
File size : 1.72 MiB

 

 

 

General

Complete name : F:\Games\RepackGames.Net – NASCAR 15 Victory Edition\NASCAR 15 Victory Edition\_CommonRedist\DirectX\Jun2010\Nov2007_d3dx9_36_x86.cab
File size : 1.63 MiB

 

 

 

General

Complete name : F:\Games\RepackGames.Net – NASCAR 15 Victory Edition\NASCAR 15 Victory Edition\_CommonRedist\DirectX\Jun2010\NOV2007_X3DAudio_x64.cab
File size : 45.1 KiB

 

 

 

General

Complete name : F:\Games\RepackGames.Net – NASCAR 15 Victory Edition\NASCAR 15 Victory Edition\_CommonRedist\DirectX\Jun2010\NOV2007_X3DAudio_x86.cab
File size : 18.1 KiB

 

 

 

General

Complete name : F:\Games\RepackGames.Net – NASCAR 15 Victory Edition\NASCAR 15 Victory Edition\_CommonRedist\DirectX\Jun2010\NOV2007_XACT_x64.cab
File size : 192 KiB

 

 

 

General

Complete name : F:\Games\RepackGames.Net – NASCAR 15 Victory Edition\NASCAR 15 Victory Edition\_CommonRedist\DirectX\Jun2010\NOV2007_XACT_x86.cab
File size : 145 KiB

 

 

 

General

Complete name : F:\Games\RepackGames.Net – NASCAR 15 Victory Edition\NASCAR 15 Victory Edition\_CommonRedist\DirectX\Jun2010\Nov2008_d3dx10_40_x64.cab
File size : 971 KiB

 

 

 

General

Complete name : F:\Games\RepackGames.Net – NASCAR 15 Victory Edition\NASCAR 15 Victory Edition\_CommonRedist\DirectX\Jun2010\Nov2008_d3dx10_40_x86.cab
File size : 943 KiB

 

 

 

General

Complete name : F:\Games\RepackGames.Net – NASCAR 15 Victory Edition\NASCAR 15 Victory Edition\_CommonRedist\DirectX\Jun2010\Nov2008_d3dx9_40_x64.cab
File size : 1.82 MiB

 

 

 

General

Complete name : F:\Games\RepackGames.Net – NASCAR 15 Victory Edition\NASCAR 15 Victory Edition\_CommonRedist\DirectX\Jun2010\Nov2008_d3dx9_40_x86.cab
File size : 1.48 MiB

 

 

 

General

Complete name : F:\Games\RepackGames.Net – NASCAR 15 Victory Edition\NASCAR 15 Victory Edition\_CommonRedist\DirectX\Jun2010\Nov2008_X3DAudio_x64.cab
File size : 53.2 KiB

 

 

 

General

Complete name : F:\Games\RepackGames.Net – NASCAR 15 Victory Edition\NASCAR 15 Victory Edition\_CommonRedist\DirectX\Jun2010\Nov2008_X3DAudio_x86.cab
File size : 21.3 KiB

 

 

 

General

Complete name : F:\Games\RepackGames.Net – NASCAR 15 Victory Edition\NASCAR 15 Victory Edition\_CommonRedist\DirectX\Jun2010\Nov2008_XACT_x64.cab
File size : 119 KiB

 

 

 

General

Complete name : F:\Games\RepackGames.Net – NASCAR 15 Victory Edition\NASCAR 15 Victory Edition\_CommonRedist\DirectX\Jun2010\Nov2008_XACT_x86.cab
File size : 90.5 KiB

 

 

 

General

Complete name : F:\Games\RepackGames.Net – NASCAR 15 Victory Edition\NASCAR 15 Victory Edition\_CommonRedist\DirectX\Jun2010\Nov2008_XAudio_x64.cab
File size : 268 KiB

 

 

 

General

Complete name : F:\Games\RepackGames.Net – NASCAR 15 Victory Edition\NASCAR 15 Victory Edition\_CommonRedist\DirectX\Jun2010\Nov2008_XAudio_x86.cab
File size : 266 KiB

 

 

 

General

Complete name : F:\Games\RepackGames.Net – NASCAR 15 Victory Edition\NASCAR 15 Victory Edition\_CommonRedist\DirectX\Jun2010\Oct2005_xinput_x64.cab
File size : 84.0 KiB

 

 

 

General

Complete name : F:\Games\RepackGames.Net – NASCAR 15 Victory Edition\NASCAR 15 Victory Edition\_CommonRedist\DirectX\Jun2010\Oct2005_xinput_x86.cab
File size : 44.3 KiB

 

 

 

General

Complete name : F:\Games\RepackGames.Net – NASCAR 15 Victory Edition\NASCAR 15 Victory Edition\_CommonRedist\DirectX\Jun2010\OCT2006_d3dx9_31_x64.cab
File size : 1.35 MiB

 

 

 

General

Complete name : F:\Games\RepackGames.Net – NASCAR 15 Victory Edition\NASCAR 15 Victory Edition\_CommonRedist\DirectX\Jun2010\OCT2006_d3dx9_31_x86.cab
File size : 1.07 MiB

 

 

 

General

Complete name : F:\Games\RepackGames.Net – NASCAR 15 Victory Edition\NASCAR 15 Victory Edition\_CommonRedist\DirectX\Jun2010\OCT2006_XACT_x64.cab
File size : 178 KiB

 

 

 

General

Complete name : F:\Games\RepackGames.Net – NASCAR 15 Victory Edition\NASCAR 15 Victory Edition\_CommonRedist\DirectX\Jun2010\OCT2006_XACT_x86.cab
File size : 135 KiB

 

 

 

General

Complete name : F:\Games\RepackGames.Net – NASCAR 15 Victory Edition\NASCAR 15 Victory Edition\_CommonRedist\vcredist\2008\installscript.vdf
File size : 919 Bytes

 

 

 

General

Complete name : F:\Games\RepackGames.Net – NASCAR 15 Victory Edition\NASCAR 15 Victory Edition\_CommonRedist\vcredist\2008\vcredist_x64.exe
Format : MZ
Format profile : Executable / Intel i386
File size : 4.97 MiB
Encoded date : UTC 2005-06-01 16:46:51

 

 

 

General

Complete name : F:\Games\RepackGames.Net – NASCAR 15 Victory Edition\NASCAR 15 Victory Edition\_CommonRedist\vcredist\2008\vcredist_x86.exe
Format : MZ
Format profile : Executable / Intel i386
File size : 4.27 MiB
Encoded date : UTC 2005-06-01 16:46:51

 

 

 

General

Complete name : F:\Games\RepackGames.Net – NASCAR 15 Victory Edition\NASCAR 15 Victory Edition\_CommonRedist\vcredist\2010\installscript.vdf
File size : 919 Bytes

 

 

 

General

Complete name : F:\Games\RepackGames.Net – NASCAR 15 Victory Edition\NASCAR 15 Victory Edition\_CommonRedist\vcredist\2010\vcredist_x64.exe
Format : MZ
Format profile : Executable / Intel i386
File size : 9.80 MiB
Encoded date : UTC 2007-12-21 07:26:24

 

 

 

General

Complete name : F:\Games\RepackGames.Net – NASCAR 15 Victory Edition\NASCAR 15 Victory Edition\_CommonRedist\vcredist\2010\vcredist_x86.exe
Format : MZ
Format profile : Executable / Intel i386
File size : 8.57 MiB
Encoded date : UTC 2007-12-21 07:26:24

 

 

 

General

Complete name : F:\Games\RepackGames.Net – NASCAR 15 Victory Edition\NASCAR 15 Victory Edition\bin\app.ico
Format : ICO
File size : 47.7 KiB

 

Image #1

Width : 16 pixels
Height : 16 pixels
Bit depth : 32 bits
Stream size : 1.10 KiB (2%)

 

Image #2

Width : 24 pixels
Height : 24 pixels
Bit depth : 32 bits
Stream size : 2.38 KiB (5%)

 

Image #3

Width : 32 pixels
Height : 32 pixels
Bit depth : 32 bits
Stream size : 4.16 KiB (9%)

 

Image #4

Width : 48 pixels
Height : 48 pixels
Bit depth : 32 bits
Stream size : 9.41 KiB (20%)

 

Image #5

Width : 64 pixels
Height : 64 pixels
Bit depth : 32 bits
Stream size : 16.5 KiB (35%)

 

Image #6

Width : 256 pixels
Height : 256 pixels
Bit depth : 32 bits
Stream size : 14.0 KiB (29%)

 

 

 

General

Complete name : F:\Games\RepackGames.Net – NASCAR 15 Victory Edition\NASCAR 15 Victory Edition\bin\cudart32_30_9.dll
Format : MZ
Format profile : DLL / Intel i386
File size : 284 KiB
Encoded date : UTC 2009-12-19 04:43:46

 

 

 

General

Complete name : F:\Games\RepackGames.Net – NASCAR 15 Victory Edition\NASCAR 15 Victory Edition\bin\cudart32_50_35.dll
Format : MZ
Format profile : DLL / Intel i386
File size : 461 KiB
Encoded date : UTC 2012-09-26 03:22:09

 

 

 

General

Complete name : F:\Games\RepackGames.Net – NASCAR 15 Victory Edition\NASCAR 15 Victory Edition\bin\fmodex.dll
Format : MZ
Format profile : DLL / Intel i386
File size : 1.03 MiB
Encoded date : UTC 2012-04-18 05:51:16

 

 

 

General

Complete name : F:\Games\RepackGames.Net – NASCAR 15 Victory Edition\NASCAR 15 Victory Edition\bin\fmod_event.dll
Format : MZ
Format profile : DLL / Intel i386
File size : 409 KiB
Encoded date : UTC 2012-04-18 05:47:39

 

 

 

General

Complete name : F:\Games\RepackGames.Net – NASCAR 15 Victory Edition\NASCAR 15 Victory Edition\bin\fmod_event_net.dll
Format : MZ
Format profile : DLL / Intel i386
File size : 802 KiB
Encoded date : UTC 2012-04-18 05:51:30

 

 

 

General

Complete name : F:\Games\RepackGames.Net – NASCAR 15 Victory Edition\NASCAR 15 Victory Edition\bin\libeay32.dll
Format : MZ
Format profile : DLL / Intel i386
File size : 996 KiB
Encoded date : UTC 2010-06-05 20:01:36

 

 

 

General

Complete name : F:\Games\RepackGames.Net – NASCAR 15 Victory Edition\NASCAR 15 Victory Edition\bin\NASCAR15.cdx
Format : MZ
Format profile : Executable / Intel i386
File size : 13.1 MiB
Encoded date : UTC 2015-10-12 09:27:00

 

 

 

General

Complete name : F:\Games\RepackGames.Net – NASCAR 15 Victory Edition\NASCAR 15 Victory Edition\bin\NASCAR15.exe
Format : MZ
Format profile : Executable / Intel i386
File size : 13.1 MiB

 

 

 

General

Complete name : F:\Games\RepackGames.Net – NASCAR 15 Victory Edition\NASCAR 15 Victory Edition\bin\PhysXCooking.dll
Format : MZ
Format profile : DLL / Intel i386
File size : 375 KiB
Encoded date : UTC 2011-07-06 03:51:31

 

 

 

General

Complete name : F:\Games\RepackGames.Net – NASCAR 15 Victory Edition\NASCAR 15 Victory Edition\bin\PhysXCore.dll
Format : MZ
Format profile : DLL / Intel i386
File size : 3.40 MiB
Encoded date : UTC 2011-07-06 03:55:03

 

 

 

General

Complete name : F:\Games\RepackGames.Net – NASCAR 15 Victory Edition\NASCAR 15 Victory Edition\bin\PhysXLoader.dll
Format : MZ
Format profile : DLL / Intel i386
File size : 62.8 KiB
Encoded date : UTC 2011-07-06 03:51:21

 

 

 

General

Complete name : F:\Games\RepackGames.Net – NASCAR 15 Victory Edition\NASCAR 15 Victory Edition\bin\ssleay32.dll
Format : MZ
Format profile : DLL / Intel i386
File size : 208 KiB
Encoded date : UTC 2009-04-11 01:04:24

 

 

 

General

Complete name : F:\Games\RepackGames.Net – NASCAR 15 Victory Edition\NASCAR 15 Victory Edition\bin\steam_api.cdx
Format : MZ
Format profile : DLL / Intel i386
File size : 142 KiB
Encoded date : UTC 2014-08-28 20:59:41

 

 

 

General

Complete name : F:\Games\RepackGames.Net – NASCAR 15 Victory Edition\NASCAR 15 Victory Edition\bin\steam_api.dll
Format : MZ
Format profile : DLL / Intel i386
File size : 242 KiB
Encoded date : UTC 2015-08-25 21:45:37

 

 

 

General

Complete name : F:\Games\RepackGames.Net – NASCAR 15 Victory Edition\NASCAR 15 Victory Edition\bin\steam_api.ini
File size : 3.49 KiB

 

 

NASCAR 15 Victory Edition Small Size

——————————————————————————-
Post Information
——————————————————————————-
Posted by…………: RepackGames.Net
Fills Policy………: Ask for them nicely
Repost Policy……..: 5 days after original post

——————————————————————————-

NASCAR 15 Victory Edition PC Game Cracked

——————————————————————————-
Release Notes
——————————————————————————-

Visit www.RepackGames.Net to get latest repack (highly compressed) PC games for free.

——————————————————————————-

NASCAR 15 Victory Edition Repack Free Download

Here are quick steps how to installing NASCAR 15 Victory Edition Repack PC Game, make sure you follow the steps that we have given below correctly.

How to Install
  1. Unrar with latest winRAR version.
  2. Run “setup.exe”.
  3. Run the game from shortcut in “start” menu or dekstop shortcut.
  4. Support the software developers. If you like this game, please buy it! Thank you very much.

Note
  1. Block the game’s exe in your firewall to prevent the game from trying to go online.
  2. If you install games to your systemdrive, it may be necessary to run this game with admin privileges instead.

NASCAR 15 Victory Edition Repack Free Download

Download NASCAR 15 Victory Edition Repack from this website. RepackGames.Net offering this latest repack game for free. Get working repack game without bugs and error. We had posted direct download links to download this game for PC (Personal Computer) without cost (100% free). The latest and updated game by the publishers are given here. Download NASCAR 15 Victory Edition Repack in highly compressed form without viruses. This game have been repacked by trusted group. Download complete game (include crack, update, hotfix, etc) from here. RepackGames.Net also provides crack-patch of this game. In this post, we also insert the trailer of the game, so before downloading this game please take your time first to watch the trailer that already we served, click on Trailer tab above. Please install it using recommended settings. Enjoy playing this amazing game for free on your PC. Share with friends. Thanks for having look over our work! Please note that this game is hosted on a third-party file sharing website, and it is not affiliated with RepackGames.Net.

Tags: #Highly Compressed #NASCAR 15 Victory Edition Repack #NASCAR 15 Victory Edition Repack Free Download #PC Game