Monument Repack Free Download


Monument Repack Free Download

Monument Repack Free Download

AboutFeaturesScreenshotsTrailerSystem Requirements.NFO

Basic Information

Monument Repack Free Download PC Game setup for Windows operating system (OS). Monument Repack is a Action and Indie game. Monument Repack is a PC game that developed and published by D-Games. Monument Repack game was released on 5 June 2015. The size of this game is 312 MB (327,309,161 bytes). It was released for all platforms, but we are only offering this game to play only on PC/Windows. It supports single player mode only.


Oldschool FPS. Hardcore classic gameplay. Huge hordes of monsters. Blood. Fun.
Each level is unique and not similar to the previous.
Play with your best friends: shotgun, machine gun, plasma gun and a homemade rifle.
Send to the grave evil chickens, aliens and other evil spirits.

Game Features:
  • level 3 has been fixed (plasma, enemies)
  • more optimization

Repack Features:
  • Based on HI2U ISO release: hi-monument.iso 367 MB (385,613,824 bytes).
  • MD5 Perfect: all files are identical to originals after installation.
  • Version of the game v1.0.2.
  • NOTHING ripped, NOTHING re-encoded.
  • Installation takes 3-4 minutes (depending on your PC performance).
  • Work perfectly.
  • Repack by RepackGames.Net.

Monument Repack Free Download

Snapshot of Monument Repack

Image of Monument Repack

This game system requirements are described in the content below. With these specifications, the game will run smoothly and graphics would be crystal clear. A machine (CPU) better than these specifications is most beneficiary.

  • OS: Windows 7 64
  • Processor: 2 GHz
  • Memory: 4 GB RAM
  • DirectX: Version 9.0
  • Hard Drive: 1 GB available space



Monument Repack Free Download

Download Free Repack Games – RepackGames.Net

Monument Repack

Monument Repack Free Download

General Information




Complete name : D:\James\RepackGames.Net – Monument\Monument\Monument.exe
Format : MZ
Format profile : Executable / AMD x86-64
File size : 17.8 MiB
Encoded date : UTC 2015-03-27 11:14:41





Complete name : D:\James\RepackGames.Net – Monument\Monument\unins000.dat
File size : 31.8 KiB





Complete name : D:\James\RepackGames.Net – Monument\Monument\unins000.exe
Format : MZ
Format profile : Executable / Intel i386
File size : 1.67 MiB
Encoded date : UTC 2013-10-13 08:19:33





Complete name : D:\James\RepackGames.Net – Monument\Monument\version.txt
File size : 7.00 Bytes





Complete name : D:\James\RepackGames.Net – Monument\Monument\_CommonRedist\PhysX\9.14.0702\installscript.vdf
File size : 618 Bytes





Complete name : D:\James\RepackGames.Net – Monument\Monument\_CommonRedist\PhysX\9.14.0702\PhysX-9.14.0702-SystemSoftware.msi
File size : 57.3 MiB





Complete name : D:\James\RepackGames.Net – Monument\Monument\Monument Icon.ico
Format : ICO
File size : 550 KiB


Image #1

Width : 16 pixels
Height : 16 pixels
Bit depth : 32 bits
Stream size : 1.10 KiB (0%)


Image #2

Width : 24 pixels
Height : 24 pixels
Bit depth : 32 bits
Stream size : 2.38 KiB (0%)


Image #3

Width : 32 pixels
Height : 32 pixels
Bit depth : 32 bits
Stream size : 4.16 KiB (1%)


Image #4

Width : 48 pixels
Height : 48 pixels
Bit depth : 32 bits
Stream size : 9.41 KiB (2%)


Image #5

Width : 64 pixels
Height : 64 pixels
Bit depth : 32 bits
Stream size : 16.5 KiB (3%)


Image #6

Width : 96 pixels
Height : 96 pixels
Bit depth : 32 bits
Stream size : 37.2 KiB (7%)


Image #7

Width : 128 pixels
Height : 128 pixels
Bit depth : 32 bits
Stream size : 66.0 KiB (12%)


Image #8

Width : 192 pixels
Height : 192 pixels
Bit depth : 32 bits
Stream size : 149 KiB (27%)


Image #9

Width : 256 pixels
Height : 256 pixels
Bit depth : 32 bits
Stream size : 264 KiB (48%)



Monument Repack Free Download

Post Information
Posted by…………: RepackGames.Net
Fills Policy………: Ask for them nicely
Repost Policy……..: 5 days after original post


Monument Repack Free Download

Release Notes

Visit www.RepackGames.Net to get latest repack (highly compressed) PC games for free.


Monument Repack Free Download

Here are quick steps how to installing Monument Repack PC Game, make sure you follow the steps that we have given below correctly.

How to Install
  1. Unrar with latest winRAR version.
  2. Run “setup.exe”.
  3. Start the game from installed direction.


Support the software developers. If you like this game, please buy it! Thank you very much.

Monument Repack Free Download

Download Monument Repack from this website. RepackGames.Net offering this latest repack game for free. Get working repack game without bugs and error. We had posted direct download links to download this game for PC (Personal Computer) without cost (100% free). The latest and updated game by the publishers are given here. Download Monument Repack in highly compressed form without viruses. This game have been repacked by trusted group. Download complete game (include crack, update, hotfix, etc) from here. RepackGames.Net also provides crack-patch of this game. In this post, we also insert the trailer of the game, so before downloading this game please take your time first to watch the trailer that already we served, click on Trailer tab above. Please install it using recommended settings. Enjoy playing this amazing game for free on your PC. Share with friends. Thanks for having look over our work! Please note that this game is hosted on a third-party file sharing website, and it is not affiliated with RepackGames.Net.

Tags: #Monument Highly Compressed #Monument PC Game Repack Free Download #Monument Repack #Monument Repack Crack #Monument Repack Download #Monument Repack Free #Monument Repack Free Download #Monument Repack Full Version

In RepackGames.Net, you can download latest repack (PC) games with small size for free. We release repack games daily as fast as we can. You can find any genre of pc games such as war games, sports, strategy, fantasy, etc.