Lethis Path of Progress Repack Free Download

329 views

Lethis Path of Progress Repack Free Download

Lethis Path of Progress Repack Free Download

AboutFeaturesScreenshotsTrailerSystem Requirements.NFO

Basic Information

Lethis Path of Progress Repack Free Download PC Game setup for Windows operating system (OS). Lethis Path of Progress Repack is a Indie, Simulation, Strategy game. Lethis Path of Progress Repack is a PC game that developed and published by Triskell Interactive. Lethis Path of Progress Repack game was released on 25 July 2015. The size of this game is 1.19 GB (1,286,942,716 bytes). It was released for all platforms, but we are only offering this game to play only on PC/Windows. It supports single player mode only.

You may also like Farm Expert 2016 Repack.

Description

The Game:
Lethis – Path of Progress is an old school 2D city builder set in a Victorian Steampunk universe called Lethis. You will have to build and manage cities, provide resources for your inhabitants while making sure there are enough workers to sustain your production lines. Trade with others cities, honor the requests of the Emperor and make your citizens happy.
History:
With the discovery of condensed steam as a source of energy, the world of Lethis sees an unprecedented Industrial Revolution. As a result, the Empire enters a period of urbanisation. New cities are built everywhere. This rural exodus leads to new towns in strategical places to ensure the growth of the Empire. A time of great change is also a right time for new discoveries and innovation in science. Cities are built around great monuments like gigantic zeppelin hangars and observatories.

Game Features:
  • A campaign mode containing 26 missions with 3 difficulty levels
  • A sandbox mode for unlimited fun
  • Over 24 different resources to manage
  • More than 40 different buildings and 4 unique Monuments
  • Over fifteen different characters that roam the city
  • Maps that reach up to 400 per 400 box tiles
  • An amazing soundtrack with over 20 different songs

Repack Features:
  • Based on FLT ISO release: flt-knde.iso (1.02 GB).
  • MD5 Perfect: all files are identical to originals after installation.
  • Version of the game v1.0.
  • NOTHING ripped, NOTHING re-encoded, pure only repack.
  • Installation takes 3-4 minutes (depending on your PC performance).
  • Work perfectly.
  • Repack by RepackGames.Net.

Lethis Path of Progress Repack Free Download

Snapshot of Lethis Path of Progress Repack

Image of Lethis Path of Progress Repack

This game system requirements are described in the content below. With these specifications, the game will run smoothly and graphics would be crystal clear. A machine (CPU) better than these specifications is most beneficiary.

MINIMUM:
  • OS: Windows 7/8/8.1
  • Processor: Intel core 2 duo, 2.0GHz
  • Memory: 2 GB RAM
  • Graphics: GPU with at least 512 Mb of memory (Does not support Intel Integrated Graphics Cards)
  • Hard Drive: 1500 MB available space
  • Sound Card: Any
  • Additional Notes: THE GAME DOES NOT SUPPORT INTEL INTEGRATED GRAPHICS CARDS

RECOMMENDED:

*******************************************************************************

Lethis Path of Progress Repack Free Download

Download Free Repack Games – RepackGames.Net

*******************************************************************************
Lethis Path of Progress Repack
*******************************************************************************

Lethis Path of Progress Repack Free Download

——————————————————————————-
General Information
——————————————————————————-

 

 

General

Complete name : D:\Highly Compressed PC Games\Games\Knee Deep\Knee Deep\New folder\steam_api64.dll
Format : MZ
Format profile : DLL / AMD x86-64
File size : 394 KiB
Encoded date : UTC 2015-07-06 16:24:23

 

 

 

General

Complete name : D:\Highly Compressed PC Games\Games\Knee Deep\Knee Deep\New folder\steam_appid.txt
File size : 6.00 Bytes

 

 

 

General

Complete name : D:\Highly Compressed PC Games\Games\Knee Deep\Knee Deep\New folder\unins000.dat
Format : MPEG Audio
File size : 85.5 KiB
Duration : 3s 104ms
Overall bit rate mode : Constant
Overall bit rate : 160 Kbps

 

Audio

Format : MPEG Audio
Format version : Version 1
Format profile : Layer 1
Duration : 3s 143ms
Bit rate mode : Constant
Bit rate : 160 Kbps
Channel(s) : 2 channels
Sampling rate : 44.1 KHz
Compression mode : Lossy
Stream size : 60.6 KiB (71%)

 

 

 

General

Complete name : D:\Highly Compressed PC Games\Games\Knee Deep\Knee Deep\New folder\unins000.exe
Format : MZ
Format profile : Executable / Intel i386
File size : 1.14 MiB
Encoded date : UTC 2013-10-13 08:19:33

 

 

 

General

Complete name : D:\Highly Compressed PC Games\Games\Knee Deep\Knee Deep\New folder\icon.ico
Format : ICO
File size : 5.30 KiB

 

Image #1

Width : 16 pixels
Height : 16 pixels
Bit depth : 32 bits
Stream size : 1.10 KiB (21%)

 

Image #2

Width : 32 pixels
Height : 32 pixels
Bit depth : 32 bits
Stream size : 4.16 KiB (79%)

 

 

 

General

Complete name : D:\Highly Compressed PC Games\Games\Knee Deep\Knee Deep\New folder\Knee Deep.exe
Format : MZ
Format profile : Executable / AMD x86-64
File size : 14.2 MiB
Encoded date : UTC 2015-04-27 10:54:34

 

 

Lethis Path of Progress Repack Free Download

——————————————————————————-
Post Information
——————————————————————————-
Posted by…………: RepackGames.Net
Fills Policy………: Ask for them nicely
Repost Policy……..: 5 days after original post

——————————————————————————-

Lethis Path of Progress Repack Free Download

——————————————————————————-
Release Notes
——————————————————————————-

Visit www.RepackGames.Net to get latest repack (highly compressed) PC games for free.

——————————————————————————-

Lethis Path of Progress Repack Free Download

Here are quick steps how to installing Lethis Path of Progress Repack PC Game, make sure you follow the steps that we have given below correctly.

How to Install
  1. Unrar with latest winRAR version.
  2. Run “setup.exe”.
  3. Start the game from your dekstop.
  4. Support the software developers. If you like this game, please buy it! Thank you very much.

Note
  1. Block the game’s exe in your firewall to prevent the game from trying to go online.
  2. If you install games to your systemdrive, it may be necessary to run this game with admin privileges instead.

Lethis Path of Progress Repack Free Download

Download Lethis Path of Progress Repack from this website. RepackGames.Net offering this latest repack game for free. Get working repack game without bugs and error. We had posted direct download links to download this game for PC (Personal Computer) without cost (100% free). The latest and updated game by the publishers are given here. Download Lethis Path of Progress Repack in highly compressed form without viruses. This game have been repacked by trusted group. Download complete game (include crack, update, hotfix, etc) from here. RepackGames.Net also provides crack-patch of this game. In this post, we also insert the trailer of the game, so before downloading this game please take your time first to watch the trailer that already we served, click on Trailer tab above. Please install it using recommended settings. Enjoy playing this amazing game for free on your PC. Share with friends. Thanks for having look over our work! Please note that this game is hosted on a third-party file sharing website, and it is not affiliated with RepackGames.Net.

Tags: #Lethis Path of Progress Highly Compressed #Lethis Path of Progress PC Game Repack Free Download #Lethis Path of Progress Repack #Lethis Path of Progress Repack Crack #Lethis Path of Progress Repack Download #Lethis Path of Progress Repack Free #Lethis Path of Progress Repack Free Download #Lethis Path of Progress Repack Full Version #SKIDROW