Hacknet Repack Free Download

578 views

Hacknet Repack Free Download

Hacknet Repack Free Download

AboutFeaturesScreenshotsTrailerSystem Requirements.NFO

Basic Information

Hacknet Repack Free Download PC Game setup for Windows operating system (OS). Hacknet Repack is a Indie, Simulation game. Hacknet Repack is a PC game that developed and published by Red Dot Games and PlayWay S.A.. Hacknet Repack game was released on 12, August 2015. The size of this game is 993 MB (1,041,981,767 bytes). It was released for all platforms, but we are only offering this game to play only on PC/Windows. It supports single player mode only.

Description

Hacknet is an immersive, terminal-based hacking simulator for PC. Dive down a rabbit hoIe as you follow the instructions of a recently deceased hacker, whose death may not have been the accident the media reports. Using old school command prompts and real hacking processes, you’ll solve the mystery with minimal hand-holding and a rich world full of secrets to explore.

Bit, a peretas responsible for creating the most invasive security system on the planet, is dead. When he fails to reconnect to his system for 14 days, his failsafe kicks in, sending instructions in automated emails to a lone user. As that user, it’s up to you to unravel the mystery and ensure that Hacknet-OS doesn’t fall into the wrong hands.

Exploring the volatile nature of personal privacy, the prevalence of corporate greed, and the hidden powers of hackers on the internet, Hacknet delivers a true hacking simulation, while offering a support system that allows total beginners get a grasp of the real-world applications and commands found throughout the game.

Game Features:
  • Real hacking.
  • Mystery of bit.
  • Full immersion.
  • Uncompromising.
  • Killer tunes.

Repack Features:
  • Based on CODEX ISO release: codex-car.mechanic.simulator.2015.visual.tuning.iso (1.4 GB).
  • MD5 Perfect: all files are identical to originals after installation.
  • Version of the game v1.2.
  • NOTHING ripped, NOTHING re-encoded, pure only repack.
  • Significantly smaller archive size (compressed from 1.4 GB to 993 MB)
  • Installation takes 3-4 minutes (depending on your PC performance).
  • Work perfectly.
  • Include 2 DLCs: Youngtimer and Visual Tuning
  • Repack by RepackGames.Net.

Hacknet Repack Free Download

Snapshot of Hacknet Repack

Image of Hacknet Repack

This game system requirements are described in the content below. With these specifications, the game will run smoothly and graphics would be crystal clear. A machine (CPU) better than these specifications is most beneficiary.

MINIMUM:
  • OS: Windows XP
  • Processor: 2.0 GHz
  • Memory: 512 MB RAM
  • Graphics: GeForce 8800 or Radeon® HD4800 series, 512 MB of memory
  • Hard Drive: 100 MB available space

RECOMMENDED:

Hacknet Repack Free Download

Download Free Repack Games – RepackGames.Net

*******************
Hacknet Repack Highly Compressed Small Size
*******************

Hacknet Repack Free Download

——————————————————————————-
General Information
——————————————————————————-

 

 

General

Complete name : Y:\Games\RepackGames.Net – Hacknet\Hacknet\Hacknet.exe
Format : MZ
Format profile : Executable / Intel i386
File size : 771 KiB
Encoded date : UTC 2015-08-13 14:15:19

 

 

 

General

Complete name : Y:\Games\RepackGames.Net – Hacknet\Hacknet\Launch Hacknet.lnk
File size : 1.00 KiB

 

 

 

General

Complete name : Y:\Games\RepackGames.Net – Hacknet\Hacknet\Support.ico
Format : ICO
File size : 61.4 KiB

 

Image #1

Width : 32 pixels
Height : 32 pixels
Bit depth : 4 bits
Stream size : 744 Bytes (1%)

 

Image #2

Width : 16 pixels
Height : 16 pixels
Bit depth : 4 bits
Stream size : 296 Bytes (0%)

 

Image #3

Width : 48 pixels
Height : 48 pixels
Bit depth : 8 bits
Stream size : 3.66 KiB (6%)

 

Image #4

Width : 32 pixels
Height : 32 pixels
Bit depth : 8 bits
Stream size : 2.16 KiB (4%)

 

Image #5

Width : 16 pixels
Height : 16 pixels
Bit depth : 8 bits
Stream size : 1.35 KiB (2%)

 

Image #6

Width : 256 pixels
Height : 256 pixels
Bit depth : 32 bits
Stream size : 38.4 KiB (63%)

 

Image #7

Width : 48 pixels
Height : 48 pixels
Bit depth : 32 bits
Stream size : 9.41 KiB (15%)

 

Image #8

Width : 32 pixels
Height : 32 pixels
Bit depth : 32 bits
Stream size : 4.16 KiB (7%)

 

Image #9

Width : 16 pixels
Height : 16 pixels
Bit depth : 32 bits
Stream size : 1.10 KiB (2%)

 

 

 

General

Complete name : Y:\Games\RepackGames.Net – Hacknet\Hacknet\unins000.dat
File size : 410 KiB

 

 

 

General

Complete name : Y:\Games\RepackGames.Net – Hacknet\Hacknet\unins000.exe
Format : MZ
Format profile : Executable / Intel i386
File size : 1.27 MiB
Encoded date : UTC 2015-05-20 16:14:16

 

 

 

General

Complete name : Y:\Games\RepackGames.Net – Hacknet\Hacknet\unins000.msg
File size : 22.5 KiB

 

 

 

General

Complete name : Y:\Games\RepackGames.Net – Hacknet\Hacknet\webcache.zip
Format : ZIP
File size : 153 Bytes

 

 

 

General

Complete name : Y:\Games\RepackGames.Net – Hacknet\Hacknet\Content\AdminCircle.xnb
File size : 16.2 KiB

 

 

 

General

Complete name : Y:\Games\RepackGames.Net – Hacknet\Hacknet\Content\AdminNodeCircle.xnb
File size : 16.2 KiB

 

 

 

General

Complete name : Y:\Games\RepackGames.Net – Hacknet\Hacknet\Content\AdventureNetwork\AdventureLoadList.txt
File size : 142 Bytes

 

 

 

General

Complete name : Y:\Games\RepackGames.Net – Hacknet\Hacknet\Content\AdventureNetwork\ExampleComputer.xml
File size : 7.11 KiB

 

 

 

General

Complete name : Y:\Games\RepackGames.Net – Hacknet\Hacknet\Content\AdventureNetwork\ExampleComputer2.xml
File size : 1.75 KiB

 

 

 

General

Complete name : Y:\Games\RepackGames.Net – Hacknet\Hacknet\Content\AdventureNetwork\StartPointComputer.xml
File size : 957 Bytes

 

 

 

General

Complete name : Y:\Games\RepackGames.Net – Hacknet\Hacknet\Content\Arrow.xnb
File size : 1.00 MiB

 

 

 

General

Complete name : Y:\Games\RepackGames.Net – Hacknet\Hacknet\Content\AssetServerNodeOverlay.xnb
File size : 15.2 KiB

 

 

 

General

Complete name : Y:\Games\RepackGames.Net – Hacknet\Hacknet\Content\BashLogs.txt
File size : 46.0 KiB

 

 

 

General

Complete name : Y:\Games\RepackGames.Net – Hacknet\Hacknet\Content\BinaryTile.xnb
File size : 16.2 KiB

 

 

 

General

Complete name : Y:\Games\RepackGames.Net – Hacknet\Hacknet\Content\BitSpeech.txt
File size : 332 Bytes

 

 

 

General

Complete name : Y:\Games\RepackGames.Net – Hacknet\Hacknet\Content\BoatmailHeader.xnb
File size : 128 KiB

 

 

 

General

Complete name : Y:\Games\RepackGames.Net – Hacknet\Hacknet\Content\BoatmailLogo.xnb
File size : 3.14 KiB

 

 

 

General

Complete name : Y:\Games\RepackGames.Net – Hacknet\Hacknet\Content\BSOD.txt
File size : 1.14 KiB

 

 

 

General

Complete name : Y:\Games\RepackGames.Net – Hacknet\Hacknet\Content\BSODFont.xnb
File size : 77.2 KiB

 

 

 

General

Complete name : Y:\Games\RepackGames.Net – Hacknet\Hacknet\Content\Circle.xnb
File size : 16.2 KiB

 

 

 

General

Complete name : Y:\Games\RepackGames.Net – Hacknet\Hacknet\Content\CircleOutline.xnb
File size : 16.2 KiB

 

 

 

General

Complete name : Y:\Games\RepackGames.Net – Hacknet\Hacknet\Content\CircleOutlineLarge.xnb
File size : 256 KiB

 

 

 

General

Complete name : Y:\Games\RepackGames.Net – Hacknet\Hacknet\Content\Cog.xnb
File size : 4.18 KiB

 

 

 

General

Complete name : Y:\Games\RepackGames.Net – Hacknet\Hacknet\Content\Computers\BootLoadList.txt
File size : 4.41 KiB

 

 

 

General

Complete name : Y:\Games\RepackGames.Net – Hacknet\Hacknet\Content\Computers\DemoLoadList.txt
File size : 317 Bytes

 

 

 

General

Complete name : Y:\Games\RepackGames.Net – Hacknet\Hacknet\Content\Corner.xnb
File size : 27.9 KiB

 

 

 

General

Complete name : Y:\Games\RepackGames.Net – Hacknet\Hacknet\Content\Cross.xnb
File size : 4.18 KiB

 

 

 

General

Complete name : Y:\Games\RepackGames.Net – Hacknet\Hacknet\Content\EffectFiles\PointClicker\Background1.xnb
File size : 1.13 MiB

 

 

 

General

Complete name : Y:\Games\RepackGames.Net – Hacknet\Hacknet\Content\EffectFiles\PointClicker\Background2.xnb
File size : 1.13 MiB

 

 

 

General

Complete name : Y:\Games\RepackGames.Net – Hacknet\Hacknet\Content\EffectFiles\PointClicker\BaseLogo.xnb
File size : 1.13 MiB

 

 

 

General

Complete name : Y:\Games\RepackGames.Net – Hacknet\Hacknet\Content\EffectFiles\PointClicker\LogoOverlay1.xnb
File size : 1.13 MiB

 

 

 

General

Complete name : Y:\Games\RepackGames.Net – Hacknet\Hacknet\Content\EffectFiles\PointClicker\LogoOverlay2.xnb
File size : 1.13 MiB

 

 

 

General

Complete name : Y:\Games\RepackGames.Net – Hacknet\Hacknet\Content\EffectFiles\PointClicker\Star.xnb
File size : 16.2 KiB

 

 

 

General

Complete name : Y:\Games\RepackGames.Net – Hacknet\Hacknet\Content\EffectFiles\ScanlinesTextBackground.xnb
File size : 235 KiB

 

 

 

General

Complete name : Y:\Games\RepackGames.Net – Hacknet\Hacknet\Content\EffectFiles\SQLMemoryCorruptionDump.txt
File size : 3.76 KiB

 

 

 

General

Complete name : Y:\Games\RepackGames.Net – Hacknet\Hacknet\Content\EntropyLogo.xnb
File size : 16.2 KiB

 

 

 

General

Complete name : Y:\Games\RepackGames.Net – Hacknet\Hacknet\Content\ErrorTile.xnb
File size : 16.2 KiB

 

 

 

General

Complete name : Y:\Games\RepackGames.Net – Hacknet\Hacknet\Content\files\Assignment4.txt
File size : 995 Bytes

 

 

 

General

Complete name : Y:\Games\RepackGames.Net – Hacknet\Hacknet\Content\files\config.txt
File size : 347 Bytes

 

 

 

General

Complete name : Y:\Games\RepackGames.Net – Hacknet\Hacknet\Content\files\Creative_writing_assignment1.txt
File size : 1.10 KiB

 

 

 

General

Complete name : Y:\Games\RepackGames.Net – Hacknet\Hacknet\Content\files\Creative_writing_assignment2.txt
File size : 10.0 KiB

 

 

 

General

Complete name : Y:\Games\RepackGames.Net – Hacknet\Hacknet\Content\files\Design_doc_4_topsecret.txt
File size : 2.05 KiB

 

 

 

General

Complete name : Y:\Games\RepackGames.Net – Hacknet\Hacknet\Content\files\Freedom.txt
File size : 85.0 Bytes

 

 

 

General

Complete name : Y:\Games\RepackGames.Net – Hacknet\Hacknet\Content\files\InvalidCharsTestFile.txt
File size : 12.0 Bytes

 

 

 

General

Complete name : Y:\Games\RepackGames.Net – Hacknet\Hacknet\Content\files\KeyboardTest.txt
File size : 742 Bytes

 

 

 

General

Complete name : Y:\Games\RepackGames.Net – Hacknet\Hacknet\Content\files\philosophy_thesis.txt
File size : 2.03 KiB

 

 

 

General

Complete name : Y:\Games\RepackGames.Net – Hacknet\Hacknet\Content\files\readme.txt
File size : 1.43 KiB

 

 

 

General

Complete name : Y:\Games\RepackGames.Net – Hacknet\Hacknet\Content\files\shopping_list.txt
File size : 87.0 Bytes

 

 

 

General

Complete name : Y:\Games\RepackGames.Net – Hacknet\Hacknet\Content\files\Speech_notes.txt
File size : 1.11 KiB

 

 

 

General

Complete name : Y:\Games\RepackGames.Net – Hacknet\Hacknet\Content\files\VehicleTypes.txt
File size : 8.29 KiB

 

 

 

General

Complete name : Y:\Games\RepackGames.Net – Hacknet\Hacknet\Content\files\walkthrough.txt
File size : 1.85 KiB

 

 

 

General

Complete name : Y:\Games\RepackGames.Net – Hacknet\Hacknet\Content\files\webpage.txt
File size : 330 Bytes

 

 

 

General

Complete name : Y:\Games\RepackGames.Net – Hacknet\Hacknet\Content\Font10.xnb
File size : 35.2 KiB

 

 

 

General

Complete name : Y:\Games\RepackGames.Net – Hacknet\Hacknet\Content\Font12.xnb
File size : 47.2 KiB

 

 

 

General

Complete name : Y:\Games\RepackGames.Net – Hacknet\Hacknet\Content\Font14.xnb
File size : 65.2 KiB

 

 

 

General

Complete name : Y:\Games\RepackGames.Net – Hacknet\Hacknet\Content\Font16.xnb
File size : 77.2 KiB

 

 

 

General

Complete name : Y:\Games\RepackGames.Net – Hacknet\Hacknet\Content\Font23.xnb
Format : MPEG Audio
File size : 141 KiB
Overall bit rate mode : Variable

 

Audio

Format : MPEG Audio
Format version : Version 1
Format profile : Layer 1
Bit rate mode : Variable
Channel(s) : 1 channel
Sampling rate : 44.1 KHz
Compression mode : Lossy
Stream size : 109 KiB (77%)

 

 

 

General

Complete name : Y:\Games\RepackGames.Net – Hacknet\Hacknet\Content\Font7.xnb
File size : 30.2 KiB

 

 

 

General

Complete name : Y:\Games\RepackGames.Net – Hacknet\Hacknet\Content\Gradient.xnb
File size : 1.35 KiB

 

 

 

General

Complete name : Y:\Games\RepackGames.Net – Hacknet\Hacknet\Content\GradientHorizontal.xnb
File size : 1.35 KiB

 

 

 

General

Complete name : Y:\Games\RepackGames.Net – Hacknet\Hacknet\Content\HackerScripts\ThemeHack.txt
File size : 242 Bytes

 

 

 

General

Complete name : Y:\Games\RepackGames.Net – Hacknet\Hacknet\Content\HomeNodeCircle.xnb
File size : 16.2 KiB

 

 

 

General

Complete name : Y:\Games\RepackGames.Net – Hacknet\Hacknet\Content\Kremlin.xnb
File size : 1.18 MiB

 

 

 

General

Complete name : Y:\Games\RepackGames.Net – Hacknet\Hacknet\Content\Lock.xnb
File size : 4.18 KiB

 

 

 

General

Complete name : Y:\Games\RepackGames.Net – Hacknet\Hacknet\Content\MailIconBig.xnb
File size : 197 KiB

 

 

 

General

Complete name : Y:\Games\RepackGames.Net – Hacknet\Hacknet\Content\Missions\AlphaCreditsMission.xml
File size : 1.17 KiB

 

 

 

General

Complete name : Y:\Games\RepackGames.Net – Hacknet\Hacknet\Content\Missions\BitMission0.xml
File size : 1.57 KiB

 

 

 

General

Complete name : Y:\Games\RepackGames.Net – Hacknet\Hacknet\Content\Missions\BitMission0Comp.xml
File size : 3.29 KiB

 

 

 

General

Complete name : Y:\Games\RepackGames.Net – Hacknet\Hacknet\Content\Missions\BitMission1.xml
File size : 1.82 KiB

 

 

 

General

Complete name : Y:\Games\RepackGames.Net – Hacknet\Hacknet\Content\Missions\BitMission1Comp.xml
File size : 3.22 KiB

 

 

 

General

Complete name : Y:\Games\RepackGames.Net – Hacknet\Hacknet\Content\Missions\BitMission2.xml
File size : 1.70 KiB

 

 

 

General

Complete name : Y:\Games\RepackGames.Net – Hacknet\Hacknet\Content\Missions\BitMission2Comp.xml
File size : 2.56 KiB

 

 

 

General

Complete name : Y:\Games\RepackGames.Net – Hacknet\Hacknet\Content\Missions\BitMissionIntro.xml
File size : 1.39 KiB

 

 

 

General

Complete name : Y:\Games\RepackGames.Net – Hacknet\Hacknet\Content\Missions\BitPath\BitAdv_Intro.xml
File size : 1.37 KiB

 

 

 

General

Complete name : Y:\Games\RepackGames.Net – Hacknet\Hacknet\Content\Missions\BitPath\BitAdv_Intro02.xml
File size : 1.77 KiB

 

 

 

General

Complete name : Y:\Games\RepackGames.Net – Hacknet\Hacknet\Content\Missions\BitPath\BitAdv_Intro03.xml
File size : 1.37 KiB

 

 

 

General

Complete name : Y:\Games\RepackGames.Net – Hacknet\Hacknet\Content\Missions\BitPath\BitAdv_Intro04.xml
File size : 447 Bytes

 

 

 

General

Complete name : Y:\Games\RepackGames.Net – Hacknet\Hacknet\Content\Missions\BitPath\BitAdv_Intro05.xml
File size : 1.24 KiB

 

 

 

General

Complete name : Y:\Games\RepackGames.Net – Hacknet\Hacknet\Content\Missions\BitPath\BitAdv_Intro06.xml
File size : 1.17 KiB

 

 

 

General

Complete name : Y:\Games\RepackGames.Net – Hacknet\Hacknet\Content\Missions\BitPath\BitAdv_Intro07.xml
File size : 3.37 KiB

 

 

 

General

Complete name : Y:\Games\RepackGames.Net – Hacknet\Hacknet\Content\Missions\BitPath\BitAdv_Intro08_Complete.xml
File size : 1.03 KiB

 

 

 

General

Complete name : Y:\Games\RepackGames.Net – Hacknet\Hacknet\Content\Missions\BitPath\BitAdv_ZFinale01.xml
File size : 1.16 KiB

 

 

 

General

Complete name : Y:\Games\RepackGames.Net – Hacknet\Hacknet\Content\Missions\BitPath\Comps\BitWorkServer.xml
File size : 492 Bytes

 

 

 

General

Complete name : Y:\Games\RepackGames.Net – Hacknet\Hacknet\Content\Missions\BitPath\Comps\EnTechMailServer.xml
File size : 8.09 KiB

 

 

 

General

Complete name : Y:\Games\RepackGames.Net – Hacknet\Hacknet\Content\Missions\BitPath\Comps\EnTechMainframe.xml
File size : 873 Bytes

 

 

 

General

Complete name : Y:\Games\RepackGames.Net – Hacknet\Hacknet\Content\Missions\BitPath\Comps\EnTechOfflineBackup.xml
File size : 2.28 KiB

 

 

 

General

Complete name : Y:\Games\RepackGames.Net – Hacknet\Hacknet\Content\Missions\BitPath\Comps\EnTechOutsideRepo.xml
File size : 2.67 KiB

 

 

 

General

Complete name : Y:\Games\RepackGames.Net – Hacknet\Hacknet\Content\Missions\BitPath\Comps\EnTechPrometheus.xml
File size : 4.68 KiB

 

 

 

General

Complete name : Y:\Games\RepackGames.Net – Hacknet\Hacknet\Content\Missions\BitPath\Comps\EnTechRomulus.xml
File size : 5.39 KiB

 

 

 

General

Complete name : Y:\Games\RepackGames.Net – Hacknet\Hacknet\Content\Missions\BitPath\Comps\EnTechWebServer.xml
File size : 507 Bytes

 

 

 

General

Complete name : Y:\Games\RepackGames.Net – Hacknet\Hacknet\Content\Missions\BitPath\Comps\EnTechWorkstationCore.xml
File size : 413 Bytes

 

 

 

General

Complete name : Y:\Games\RepackGames.Net – Hacknet\Hacknet\Content\Missions\BitPath\Comps\EnTechWorkstations\EnTechWS01.xml
File size : 301 Bytes

 

 

 

General

Complete name : Y:\Games\RepackGames.Net – Hacknet\Hacknet\Content\Missions\BitPath\Comps\EnTechWorkstations\EnTechWS02.xml
File size : 301 Bytes

 

 

 

General

Complete name : Y:\Games\RepackGames.Net – Hacknet\Hacknet\Content\Missions\BitPath\Comps\EnTechWorkstations\EnTechWS03.xml
File size : 301 Bytes

 

 

 

General

Complete name : Y:\Games\RepackGames.Net – Hacknet\Hacknet\Content\Missions\BitPath\Comps\EnTechWorkstations\EnTechWS04MISSION.xml
File size : 1.74 KiB

 

 

 

General

Complete name : Y:\Games\RepackGames.Net – Hacknet\Hacknet\Content\Missions\BitPath\Comps\EnTechWorkstations\EnTechWS05.xml
File size : 302 Bytes

 

 

 

General

Complete name : Y:\Games\RepackGames.Net – Hacknet\Hacknet\Content\Missions\BitPath\Comps\PorthackHeart.xml
File size : 153 Bytes

 

 

 

General

Complete name : Y:\Games\RepackGames.Net – Hacknet\Hacknet\Content\Missions\CoreServers\ContractHubAssetsComp.xml
File size : 3.44 KiB

 

 

 

General

Complete name : Y:\Games\RepackGames.Net – Hacknet\Hacknet\Content\Missions\CoreServers\ContractHubComp.xml
File size : 226 Bytes

 

 

 

General

Complete name : Y:\Games\RepackGames.Net – Hacknet\Hacknet\Content\Missions\CoreServers\DeathRowDatabase.xml
File size : 1.13 KiB

 

 

 

General

Complete name : Y:\Games\RepackGames.Net – Hacknet\Hacknet\Content\Missions\CoreServers\InternationalAcademicDatabase.xml
File size : 574 Bytes

 

 

 

General

Complete name : Y:\Games\RepackGames.Net – Hacknet\Hacknet\Content\Missions\CoreServers\ISPComp.xml
File size : 333 Bytes

 

 

 

General

Complete name : Y:\Games\RepackGames.Net – Hacknet\Hacknet\Content\Missions\CoreServers\JMailServer.xml
File size : 8.41 KiB

 

 

 

General

Complete name : Y:\Games\RepackGames.Net – Hacknet\Hacknet\Content\Missions\CoreServers\MedicalDatabase.xml
File size : 386 Bytes

 

 

 

General

Complete name : Y:\Games\RepackGames.Net – Hacknet\Hacknet\Content\Missions\CreditsComp.xml
File size : 7.16 KiB

 

 

 

General

Complete name : Y:\Games\RepackGames.Net – Hacknet\Hacknet\Content\Missions\CreditsMission.xml
File size : 1.28 KiB

 

 

 

General

Complete name : Y:\Games\RepackGames.Net – Hacknet\Hacknet\Content\Missions\Demo\AvconCreditsComp.xml
File size : 1.76 KiB

 

 

 

General

Complete name : Y:\Games\RepackGames.Net – Hacknet\Hacknet\Content\Missions\Demo\AvconDemo.xml
File size : 1.01 KiB

 

 

 

General

Complete name : Y:\Games\RepackGames.Net – Hacknet\Hacknet\Content\Missions\Demo\AvconDemoComp.xml
File size : 519 Bytes

 

 

 

General

Complete name : Y:\Games\RepackGames.Net – Hacknet\Hacknet\Content\Missions\Demo\AvconDemoEnd.xml
File size : 1.04 KiB

 

 

 

General

Complete name : Y:\Games\RepackGames.Net – Hacknet\Hacknet\Content\Missions\Demo\PressBuild\Comps\BitStashDemo.xml
File size : 385 Bytes

 

 

 

General

Complete name : Y:\Games\RepackGames.Net – Hacknet\Hacknet\Content\Missions\Demo\PressBuild\Comps\FinalNodeDemo.xml
File size : 781 Bytes

 

 

 

General

Complete name : Y:\Games\RepackGames.Net – Hacknet\Hacknet\Content\Missions\Demo\PressBuild\Comps\MedicalDemo.xml
File size : 434 Bytes

 

 

 

General

Complete name : Y:\Games\RepackGames.Net – Hacknet\Hacknet\Content\Missions\Demo\PressBuild\Comps\PointClickerDemo.xml
File size : 412 Bytes

 

 

 

General

Complete name : Y:\Games\RepackGames.Net – Hacknet\Hacknet\Content\Missions\Demo\PressBuild\DemoMission01.xml
File size : 1.85 KiB

 

 

 

General

Complete name : Y:\Games\RepackGames.Net – Hacknet\Hacknet\Content\Missions\Demo\PressBuild\DemoMission02.xml
File size : 1.74 KiB

 

 

 

General

Complete name : Y:\Games\RepackGames.Net – Hacknet\Hacknet\Content\Missions\Demo\PressBuild\DemoMission03.xml
File size : 1.67 KiB

 

 

 

General

Complete name : Y:\Games\RepackGames.Net – Hacknet\Hacknet\Content\Missions\Demo\PressBuild\DemoMission04.xml
File size : 1.96 KiB

 

 

 

General

Complete name : Y:\Games\RepackGames.Net – Hacknet\Hacknet\Content\Missions\Entropy\EntropyMission1.1.xml
File size : 1.30 KiB

 

 

 

General

Complete name : Y:\Games\RepackGames.Net – Hacknet\Hacknet\Content\Missions\Entropy\EntropyMission1.1Delayer.xml
File size : 506 Bytes

 

 

 

General

Complete name : Y:\Games\RepackGames.Net – Hacknet\Hacknet\Content\Missions\Entropy\EntropyMission1.2.xml
File size : 937 Bytes

 

 

 

General

Complete name : Y:\Games\RepackGames.Net – Hacknet\Hacknet\Content\Missions\Entropy\EntropyMission2.xml
File size : 801 Bytes

 

 

 

General

Complete name : Y:\Games\RepackGames.Net – Hacknet\Hacknet\Content\Missions\Entropy\EntropyMission3.xml
File size : 2.38 KiB

 

 

 

General

Complete name : Y:\Games\RepackGames.Net – Hacknet\Hacknet\Content\Missions\Entropy\EntropyMissionComp01.xml
File size : 750 Bytes

 

 

 

General

Complete name : Y:\Games\RepackGames.Net – Hacknet\Hacknet\Content\Missions\Entropy\EntropyMissionComp1.1.xml
File size : 259 Bytes

 

 

 

General

Complete name : Y:\Games\RepackGames.Net – Hacknet\Hacknet\Content\Missions\Entropy\EntropyMissionListingComp.xml
File size : 349 Bytes

 

 

 

General

Complete name : Y:\Games\RepackGames.Net – Hacknet\Hacknet\Content\Missions\Entropy\NewsArticles\EntropyNews1.xml
File size : 957 Bytes

 

 

 

General

Complete name : Y:\Games\RepackGames.Net – Hacknet\Hacknet\Content\Missions\Entropy\NewsArticles\EntropyNews2.xml
File size : 1.05 KiB

 

 

 

General

Complete name : Y:\Games\RepackGames.Net – Hacknet\Hacknet\Content\Missions\Entropy\NewsArticles\EntropyNews3.xml
File size : 1.25 KiB

 

 

 

General

Complete name : Y:\Games\RepackGames.Net – Hacknet\Hacknet\Content\Missions\Entropy\NewsArticles\EntropyNews4.xml
File size : 1.02 KiB

 

 

 

General

Complete name : Y:\Games\RepackGames.Net – Hacknet\Hacknet\Content\Missions\Entropy\NewsArticles\EntropyNews5.xml
File size : 1.04 KiB

 

 

 

General

Complete name : Y:\Games\RepackGames.Net – Hacknet\Hacknet\Content\Missions\Entropy\NewsArticles\tmp.txt
File size : 614 Bytes

 

 

 

General

Complete name : Y:\Games\RepackGames.Net – Hacknet\Hacknet\Content\Missions\Entropy\PostBranch\EntropyAdv01.xml
File size : 1.36 KiB

 

 

 

General

Complete name : Y:\Games\RepackGames.Net – Hacknet\Hacknet\Content\Missions\Entropy\PostBranch\EntropyAdvFailComp01.xml
File size : 1.83 KiB

 

 

 

General

Complete name : Y:\Games\RepackGames.Net – Hacknet\Hacknet\Content\Missions\Entropy\PostBranch\EntropyAdvFailPath01.xml
File size : 1.34 KiB

 

 

 

General

Complete name : Y:\Games\RepackGames.Net – Hacknet\Hacknet\Content\Missions\Entropy\ServerMissions\ServerEntropyMission0.xml
File size : 771 Bytes

 

 

 

General

Complete name : Y:\Games\RepackGames.Net – Hacknet\Hacknet\Content\Missions\Entropy\ServerMissions\ServerEntropyMission1.xml
File size : 1.14 KiB

 

 

 

General

Complete name : Y:\Games\RepackGames.Net – Hacknet\Hacknet\Content\Missions\Entropy\ServerMissions\ServerEntropyMission3.xml
File size : 1.14 KiB

 

 

 

General

Complete name : Y:\Games\RepackGames.Net – Hacknet\Hacknet\Content\Missions\Entropy\StartingSet\Comps\MilburgHighITOfficeComp.xml
File size : 2.87 KiB

 

 

 

General

Complete name : Y:\Games\RepackGames.Net – Hacknet\Hacknet\Content\Missions\Entropy\StartingSet\Comps\PointClicker.xml
File size : 408 Bytes

 

 

 

General

Complete name : Y:\Games\RepackGames.Net – Hacknet\Hacknet\Content\Missions\Entropy\StartingSet\Comps\PPMarketingComp.xml
File size : 6.81 KiB

 

 

 

General

Complete name : Y:\Games\RepackGames.Net – Hacknet\Hacknet\Content\Missions\Entropy\StartingSet\Comps\XCM_Project_Tablet.xml
File size : 5.39 KiB

 

 

 

General

Complete name : Y:\Games\RepackGames.Net – Hacknet\Hacknet\Content\Missions\Entropy\StartingSet\EnrtopySet01.xml
File size : 1.32 KiB

 

 

 

General

Complete name : Y:\Games\RepackGames.Net – Hacknet\Hacknet\Content\Missions\Entropy\StartingSet\EnrtopySet02.xml
File size : 1.75 KiB

 

 

 

General

Complete name : Y:\Games\RepackGames.Net – Hacknet\Hacknet\Content\Missions\Entropy\StartingSet\EnrtopySet03.xml
File size : 1.33 KiB

 

 

 

General

Complete name : Y:\Games\RepackGames.Net – Hacknet\Hacknet\Content\Missions\Entropy\StartingSet\EnrtopySet04.xml
File size : 2.02 KiB

 

 

 

General

Complete name : Y:\Games\RepackGames.Net – Hacknet\Hacknet\Content\Missions\Entropy\StartingSet\eosMissions\Comps\eosAdded1Comp.xml
File size : 491 Bytes

 

 

 

General

Complete name : Y:\Games\RepackGames.Net – Hacknet\Hacknet\Content\Missions\Entropy\StartingSet\eosMissions\Comps\eosIntroComp.xml
File size : 2.87 KiB

 

 

 

General

Complete name : Y:\Games\RepackGames.Net – Hacknet\Hacknet\Content\Missions\Entropy\StartingSet\eosMissions\eosAddedMission.xml
File size : 1.02 KiB

 

 

 

General

Complete name : Y:\Games\RepackGames.Net – Hacknet\Hacknet\Content\Missions\Entropy\StartingSet\eosMissions\eosIntroDelayer.xml
File size : 1.28 KiB

 

 

 

General

Complete name : Y:\Games\RepackGames.Net – Hacknet\Hacknet\Content\Missions\Entropy\StartingSet\eosMissions\eosIntroMission.xml
File size : 1.43 KiB

 

 

 

General

Complete name : Y:\Games\RepackGames.Net – Hacknet\Hacknet\Content\Missions\Entropy\StartingSet\Misc\MilburgReply.xml
File size : 823 Bytes

 

 

 

General

Complete name : Y:\Games\RepackGames.Net – Hacknet\Hacknet\Content\Missions\Entropy\StartingSet\Misc\XC_Replies\XC_BAD_Reply.xml
File size : 712 Bytes

 

 

 

General

Complete name : Y:\Games\RepackGames.Net – Hacknet\Hacknet\Content\Missions\Entropy\StartingSet\Misc\XC_Replies\XC_OK_Reply.xml
File size : 772 Bytes

 

 

 

General

Complete name : Y:\Games\RepackGames.Net – Hacknet\Hacknet\Content\Missions\Entropy\StartingSet\Misc\XC_Replies\XC_OK_Reply2.xml
File size : 468 Bytes

 

 

 

General

Complete name : Y:\Games\RepackGames.Net – Hacknet\Hacknet\Content\Missions\Entropy\StartingSet\Misc\XC_Replies\XC_OK_Reply3.xml
File size : 467 Bytes

 

 

 

General

Complete name : Y:\Games\RepackGames.Net – Hacknet\Hacknet\Content\Missions\Entropy\StartingSet\Misc\XC_Replies\XC_OK_Reply4_Penetrator.xml
File size : 468 Bytes

 

 

 

General

Complete name : Y:\Games\RepackGames.Net – Hacknet\Hacknet\Content\Missions\Entropy\StartingSet\Misc\XC_Replies\XC_OK_Reply5.xml
File size : 467 Bytes

 

 

 

General

Complete name : Y:\Games\RepackGames.Net – Hacknet\Hacknet\Content\Missions\Entropy\ThemeHackTransitionMission.xml
File size : 1.48 KiB

 

 

 

General

Complete name : Y:\Games\RepackGames.Net – Hacknet\Hacknet\Content\Missions\Generated\FileDeletion\0.xml
File size : 1.28 KiB

 

 

 

General

Complete name : Y:\Games\RepackGames.Net – Hacknet\Hacknet\Content\Missions\Generated\FileDeletion\1.xml
File size : 1.08 KiB

 

 

 

General

Complete name : Y:\Games\RepackGames.Net – Hacknet\Hacknet\Content\Missions\Generated\FileDeletion\2.xml
File size : 1 011 Bytes

 

 

 

General

Complete name : Y:\Games\RepackGames.Net – Hacknet\Hacknet\Content\Missions\Generated\FileDeletion\3.xml
File size : 1.29 KiB

 

 

 

General

Complete name : Y:\Games\RepackGames.Net – Hacknet\Hacknet\Content\Missions\Generated\FileDeletion\4.xml
File size : 1.41 KiB

 

 

 

General

Complete name : Y:\Games\RepackGames.Net – Hacknet\Hacknet\Content\Missions\Generated\FileDeletion\5.xml
File size : 1.22 KiB

 

 

 

General

Complete name : Y:\Games\RepackGames.Net – Hacknet\Hacknet\Content\Missions\Generated\WebsiteChange\0.xml
File size : 999 Bytes

 

 

 

General

Complete name : Y:\Games\RepackGames.Net – Hacknet\Hacknet\Content\Missions\Generated\WebsiteChange\1.xml
File size : 1.20 KiB

 

 

 

General

Complete name : Y:\Games\RepackGames.Net – Hacknet\Hacknet\Content\Missions\Generated\WebsiteChange\2.xml
File size : 1.14 KiB

 

 

 

General

Complete name : Y:\Games\RepackGames.Net – Hacknet\Hacknet\Content\Missions\lelzSec\CompletedPathMission.xml
File size : 572 Bytes

 

 

 

General

Complete name : Y:\Games\RepackGames.Net – Hacknet\Hacknet\Content\Missions\lelzSec\CSEC_TransferMission.xml
File size : 617 Bytes

 

 

 

General

Complete name : Y:\Games\RepackGames.Net – Hacknet\Hacknet\Content\Missions\lelzSec\CSEC_TransferMissionDelay.xml
File size : 633 Bytes

 

 

 

General

Complete name : Y:\Games\RepackGames.Net – Hacknet\Hacknet\Content\Missions\lelzSec\IntroTestMission.xml
File size : 1.91 KiB

 

 

 

General

Complete name : Y:\Games\RepackGames.Net – Hacknet\Hacknet\Content\Missions\lelzSec\MessageBoard\lelzSecMessageBoard.xml
File size : 943 Bytes

 

 

 

General

Complete name : Y:\Games\RepackGames.Net – Hacknet\Hacknet\Content\Missions\lelzSec\MessageBoard\Threads\ClockThread.txt
File size : 1.14 KiB

 

 

 

General

Complete name : Y:\Games\RepackGames.Net – Hacknet\Hacknet\Content\Missions\lelzSec\MessageBoard\Threads\CoderThread.txt
File size : 1.79 KiB

 

 

 

General

Complete name : Y:\Games\RepackGames.Net – Hacknet\Hacknet\Content\Missions\lelzSec\MessageBoard\Threads\NotesThread.txt
File size : 1.34 KiB

 

 

 

General

Complete name : Y:\Games\RepackGames.Net – Hacknet\Hacknet\Content\Missions\lelzSec\MessageBoard\Threads\PLACEHOLDER_LinksThread.txt
File size : 1.05 KiB

 

 

 

General

Complete name : Y:\Games\RepackGames.Net – Hacknet\Hacknet\Content\Missions\lelzSec\MessageBoard\Threads\PolarSnake.txt
File size : 1.58 KiB

 

 

 

General

Complete name : Y:\Games\RepackGames.Net – Hacknet\Hacknet\Content\Missions\lelzSec\MessageBoard\Threads\SecuLock.txt
File size : 1.49 KiB

 

 

 

General

Complete name : Y:\Games\RepackGames.Net – Hacknet\Hacknet\Content\Missions\lelzSec\MessageBoard\Threads\TestThread.txt
File size : 397 Bytes

 

 

 

General

Complete name : Y:\Games\RepackGames.Net – Hacknet\Hacknet\Content\Missions\lelzSec\MessageBoard\Threads\TimestampsThread.txt
File size : 1.50 KiB

 

 

 

General

Complete name : Y:\Games\RepackGames.Net – Hacknet\Hacknet\Content\Missions\lelzSec\MessageBoardIntro.xml
File size : 744 Bytes

 

 

 

General

Complete name : Y:\Games\RepackGames.Net – Hacknet\Hacknet\Content\Missions\lelzSec\Misc\SecuLockDrive.xml
File size : 556 Bytes

 

 

 

General

Complete name : Y:\Games\RepackGames.Net – Hacknet\Hacknet\Content\Missions\lelzSec\Misc\SecuLockHome.xml
File size : 1.13 KiB

 

 

 

General

Complete name : Y:\Games\RepackGames.Net – Hacknet\Hacknet\Content\Missions\lelzSec\Nortron\NortronInternalServicesMachine.xml
File size : 2.17 KiB

 

 

 

General

Complete name : Y:\Games\RepackGames.Net – Hacknet\Hacknet\Content\Missions\lelzSec\Nortron\NortronMailServer.xml
File size : 3.13 KiB

 

 

 

General

Complete name : Y:\Games\RepackGames.Net – Hacknet\Hacknet\Content\Missions\lelzSec\Nortron\NortronMainframe.xml
File size : 348 Bytes

 

 

 

General

Complete name : Y:\Games\RepackGames.Net – Hacknet\Hacknet\Content\Missions\lelzSec\Nortron\NortronWebServer.xml
File size : 450 Bytes

 

 

 

General

Complete name : Y:\Games\RepackGames.Net – Hacknet\Hacknet\Content\Missions\lelzSec\NortronBreakIn.xml
File size : 925 Bytes

 

 

 

General

Complete name : Y:\Games\RepackGames.Net – Hacknet\Hacknet\Content\Missions\lelzSec\PolarSnake\PolarSnakeComp.xml
File size : 370 Bytes

 

 

 

General

Complete name : Y:\Games\RepackGames.Net – Hacknet\Hacknet\Content\Missions\lelzSec\PolarSnake\PolarSnakeDest.xml
File size : 501 Bytes

 

 

 

General

Complete name : Y:\Games\RepackGames.Net – Hacknet\Hacknet\Content\Missions\lelzSec\PolarSnake\PSTrial01.xml
File size : 428 Bytes

 

 

 

General

Complete name : Y:\Games\RepackGames.Net – Hacknet\Hacknet\Content\Missions\lelzSec\PolarSnake\PSTrial02.xml
File size : 488 Bytes

 

 

 

General

Complete name : Y:\Games\RepackGames.Net – Hacknet\Hacknet\Content\Missions\lelzSec\PolarSnake\PSTrial03.xml
File size : 395 Bytes

 

 

 

General

Complete name : Y:\Games\RepackGames.Net – Hacknet\Hacknet\Content\Missions\lelzSec\PolarSnake\PSTrial03_b.xml
File size : 422 Bytes

 

 

 

General

Complete name : Y:\Games\RepackGames.Net – Hacknet\Hacknet\Content\Missions\lelzSec\PolarSnake\PSTrial04.xml
File size : 503 Bytes

 

 

 

General

Complete name : Y:\Games\RepackGames.Net – Hacknet\Hacknet\Content\Missions\MainHub\BitSet\BitDropServer.xml
File size : 4.62 KiB

 

 

 

General

Complete name : Y:\Games\RepackGames.Net – Hacknet\Hacknet\Content\Missions\MainHub\BitSet\BitRelayServer01.xml
File size : 964 Bytes

 

 

 

General

Complete name : Y:\Games\RepackGames.Net – Hacknet\Hacknet\Content\Missions\MainHub\BitSet\Missions\BitHubSet01.xml
File size : 1.62 KiB

 

 

 

General

Complete name : Y:\Games\RepackGames.Net – Hacknet\Hacknet\Content\Missions\MainHub\BitSet\Missions\BitHubSet01_REPLY.xml
File size : 1.03 KiB

 

 

 

General

Complete name : Y:\Games\RepackGames.Net – Hacknet\Hacknet\Content\Missions\MainHub\Continuations\FirstSet08_Reply.xml
File size : 740 Bytes

 

 

 

General

Complete name : Y:\Games\RepackGames.Net – Hacknet\Hacknet\Content\Missions\MainHub\DecypherSet\DECHeadMission02.xml
File size : 1.15 KiB

 

 

 

General

Complete name : Y:\Games\RepackGames.Net – Hacknet\Hacknet\Content\Missions\MainHub\DecypherSet\DECSoftMainframeComp.xml
File size : 12.9 KiB

 

 

 

General

Complete name : Y:\Games\RepackGames.Net – Hacknet\Hacknet\Content\Missions\MainHub\DecypherSet\DECSoftWebsiteComp.xml
File size : 2.62 KiB

 

 

 

General

Complete name : Y:\Games\RepackGames.Net – Hacknet\Hacknet\Content\Missions\MainHub\DecypherSet\JScottHomeComp.xml
File size : 1.23 KiB

 

 

 

General

Complete name : Y:\Games\RepackGames.Net – Hacknet\Hacknet\Content\Missions\MainHub\DecypherSet\MacrosoftWorkhorseServerComp.xml
File size : 1.68 KiB

 

 

 

General

Complete name : Y:\Games\RepackGames.Net – Hacknet\Hacknet\Content\Missions\MainHub\FirstSet\00HubSet08.xml
File size : 1.24 KiB

 

 

 

General

Complete name : Y:\Games\RepackGames.Net – Hacknet\Hacknet\Content\Missions\MainHub\FirstSet\01HubSet02.xml
File size : 1.50 KiB

 

 

 

General

Complete name : Y:\Games\RepackGames.Net – Hacknet\Hacknet\Content\Missions\MainHub\FirstSet\02HubSet05.xml
File size : 1.91 KiB

 

 

 

General

Complete name : Y:\Games\RepackGames.Net – Hacknet\Hacknet\Content\Missions\MainHub\FirstSet\03HubSet03.xml
File size : 1.48 KiB

 

 

 

General

Complete name : Y:\Games\RepackGames.Net – Hacknet\Hacknet\Content\Missions\MainHub\FirstSet\04HubSet06.xml
File size : 1.34 KiB

 

 

 

General

Complete name : Y:\Games\RepackGames.Net – Hacknet\Hacknet\Content\Missions\MainHub\FirstSet\06HubSet07.xml
File size : 943 Bytes

 

 

 

General

Complete name : Y:\Games\RepackGames.Net – Hacknet\Hacknet\Content\Missions\MainHub\FirstSet\07HubSet01.xml
File size : 1.57 KiB

 

 

 

General

Complete name : Y:\Games\RepackGames.Net – Hacknet\Hacknet\Content\Missions\MainHub\FirstSet\081HubSet09.xml
File size : 1.12 KiB

 

 

 

General

Complete name : Y:\Games\RepackGames.Net – Hacknet\Hacknet\Content\Missions\MainHub\FirstSet\08HubSet05.01.xml
File size : 1.51 KiB

 

 

 

General

Complete name : Y:\Games\RepackGames.Net – Hacknet\Hacknet\Content\Missions\MainHub\FirstSet\09HubSet04.xml
File size : 2.13 KiB

 

 

 

General

Complete name : Y:\Games\RepackGames.Net – Hacknet\Hacknet\Content\Missions\MainHub\FirstSet\10HubSet05.02.xml
File size : 1.23 KiB

 

 

 

General

Complete name : Y:\Games\RepackGames.Net – Hacknet\Hacknet\Content\Missions\MainHub\FirstSet\HubSet09.xml
File size : 2.25 KiB

 

 

 

General

Complete name : Y:\Games\RepackGames.Net – Hacknet\Hacknet\Content\Missions\MainHub\Intro\Comps\HubCrossroadsComp.xml
File size : 7.98 KiB

 

 

 

General

Complete name : Y:\Games\RepackGames.Net – Hacknet\Hacknet\Content\Missions\MainHub\Intro\Comps\HubGauntlet01.xml
File size : 398 Bytes

 

 

 

General

Complete name : Y:\Games\RepackGames.Net – Hacknet\Hacknet\Content\Missions\MainHub\Intro\Comps\HubGauntlet02.xml
File size : 359 Bytes

 

 

 

General

Complete name : Y:\Games\RepackGames.Net – Hacknet\Hacknet\Content\Missions\MainHub\Intro\Comps\HubGauntlet03.xml
File size : 466 Bytes

 

 

 

General

Complete name : Y:\Games\RepackGames.Net – Hacknet\Hacknet\Content\Missions\MainHub\Intro\Comps\HubPublicDropComp.xml
File size : 424 Bytes

 

 

 

General

Complete name : Y:\Games\RepackGames.Net – Hacknet\Hacknet\Content\Missions\MainHub\Intro\Intro01.xml
File size : 1.18 KiB

 

 

 

General

Complete name : Y:\Games\RepackGames.Net – Hacknet\Hacknet\Content\Missions\MainHub\Intro\Intro02.xml
File size : 1.37 KiB

 

 

 

General

Complete name : Y:\Games\RepackGames.Net – Hacknet\Hacknet\Content\Missions\MainHub\Intro\Intro02Alt.xml
File size : 1.56 KiB

 

 

 

General

Complete name : Y:\Games\RepackGames.Net – Hacknet\Hacknet\Content\Missions\MainHub\Intro\Intro03Pass.xml
File size : 1.20 KiB

 

 

 

General

Complete name : Y:\Games\RepackGames.Net – Hacknet\Hacknet\Content\Missions\MainHub\KFC\KFCMainframe.xml
File size : 2.92 KiB

 

 

 

General

Complete name : Y:\Games\RepackGames.Net – Hacknet\Hacknet\Content\Missions\MainHub\KFC\KFCRecordsRepo.xml
File size : 3.52 KiB

 

 

 

General

Complete name : Y:\Games\RepackGames.Net – Hacknet\Hacknet\Content\Missions\MainHub\KFC\KFCWebServer.xml
File size : 709 Bytes

 

 

 

General

Complete name : Y:\Games\RepackGames.Net – Hacknet\Hacknet\Content\Missions\MainHub\Misc\EosComp.xml
File size : 2.35 KiB

 

 

 

General

Complete name : Y:\Games\RepackGames.Net – Hacknet\Hacknet\Content\Missions\MainHub\Misc\Faction_Gain_Helper.xml
File size : 593 Bytes

 

 

 

General

Complete name : Y:\Games\RepackGames.Net – Hacknet\Hacknet\Content\Missions\MainHub\Misc\HoneyPot01.xml
File size : 358 Bytes

 

 

 

General

Complete name : Y:\Games\RepackGames.Net – Hacknet\Hacknet\Content\Missions\MainHub\Misc\ProducerHomeComp.xml
File size : 2.73 KiB

 

 

 

General

Complete name : Y:\Games\RepackGames.Net – Hacknet\Hacknet\Content\Missions\MainHub\Notes.txt
File size : 65.0 Bytes

 

 

 

General

Complete name : Y:\Games\RepackGames.Net – Hacknet\Hacknet\Content\Missions\MainHub\PacemakerSet\HardwareArticles\Hardware1.xml
File size : 936 Bytes

 

 

 

General

Complete name : Y:\Games\RepackGames.Net – Hacknet\Hacknet\Content\Missions\MainHub\PacemakerSet\HardwareArticles\Hardware2.xml
File size : 726 Bytes

 

 

 

General

Complete name : Y:\Games\RepackGames.Net – Hacknet\Hacknet\Content\Missions\MainHub\PacemakerSet\HardwareArticles\Hardware3.xml
File size : 1.90 KiB

 

 

 

General

Complete name : Y:\Games\RepackGames.Net – Hacknet\Hacknet\Content\Missions\MainHub\PacemakerSet\HardwareArticles\Hardware4.xml
File size : 1.50 KiB

 

 

 

General

Complete name : Y:\Games\RepackGames.Net – Hacknet\Hacknet\Content\Missions\MainHub\PacemakerSet\HardwareArticles\Hardware5.xml
File size : 1.21 KiB

 

 

 

General

Complete name : Y:\Games\RepackGames.Net – Hacknet\Hacknet\Content\Missions\MainHub\PacemakerSet\HardwareBackEndComp.xml
File size : 1.55 KiB

 

 

 

General

Complete name : Y:\Games\RepackGames.Net – Hacknet\Hacknet\Content\Missions\MainHub\PacemakerSet\HardwareFrontEndComp.xml
File size : 533 Bytes

 

 

 

General

Complete name : Y:\Games\RepackGames.Net – Hacknet\Hacknet\Content\Missions\MainHub\PacemakerSet\PacemakerChip.xml
File size : 735 Bytes

 

 

 

General

Complete name : Y:\Games\RepackGames.Net – Hacknet\Hacknet\Content\Missions\MainHub\PacemakerSet\PacemakerSet_Deny_Branch.xml
File size : 714 Bytes

 

 

 

General

Complete name : Y:\Games\RepackGames.Net – Hacknet\Hacknet\Content\Missions\MainHub\PacemakerSet\PacemakerSet_Deny_Reply.xml
File size : 550 Bytes

 

 

 

General

Complete name : Y:\Games\RepackGames.Net – Hacknet\Hacknet\Content\Missions\MainHub\PacemakerSet\SoftwareBackEndComp.xml
File size : 3.72 KiB

 

 

 

General

Complete name : Y:\Games\RepackGames.Net – Hacknet\Hacknet\Content\Missions\Misc\ClockArchiveServer.xml
File size : 406 Bytes

 

 

 

General

Complete name : Y:\Games\RepackGames.Net – Hacknet\Hacknet\Content\Missions\Misc\EducationArticles\Education1.xml
File size : 1.44 KiB

 

 

 

General

Complete name : Y:\Games\RepackGames.Net – Hacknet\Hacknet\Content\Missions\Misc\EducationArticles\Education2.xml
File size : 1.08 KiB

 

 

 

General

Complete name : Y:\Games\RepackGames.Net – Hacknet\Hacknet\Content\Missions\Misc\EducationArticles\Education3.xml
File size : 1.26 KiB

 

 

 

General

Complete name : Y:\Games\RepackGames.Net – Hacknet\Hacknet\Content\Missions\Misc\EducationArticles\Education4.0.xml
File size : 1.19 KiB

 

 

 

General

Complete name : Y:\Games\RepackGames.Net – Hacknet\Hacknet\Content\Missions\Misc\EducationArticles\Education4.1.xml
File size : 1.52 KiB

 

 

 

General

Complete name : Y:\Games\RepackGames.Net – Hacknet\Hacknet\Content\Missions\Misc\EducationArticles\Education5.xml
File size : 1.49 KiB

 

 

 

General

Complete name : Y:\Games\RepackGames.Net – Hacknet\Hacknet\Content\Missions\Misc\EducationArticles\Education6.xml
File size : 1.39 KiB

 

 

 

General

Complete name : Y:\Games\RepackGames.Net – Hacknet\Hacknet\Content\Missions\Misc\EducationArticles\Education7.xml
File size : 878 Bytes

 

 

 

General

Complete name : Y:\Games\RepackGames.Net – Hacknet\Hacknet\Content\Missions\Misc\MiscMacrosoftStorageServer.xml
File size : 345 Bytes

 

 

 

General

Complete name : Y:\Games\RepackGames.Net – Hacknet\Hacknet\Content\Missions\Misc\NetworkEducationArchives.xml
File size : 268 Bytes

 

 

 

General

Complete name : Y:\Games\RepackGames.Net – Hacknet\Hacknet\Content\Missions\Misc\PracticeServer.xml
File size : 162 Bytes

 

 

 

General

Complete name : Y:\Games\RepackGames.Net – Hacknet\Hacknet\Content\Missions\Misc\RedditServer.xml
File size : 295 Bytes

 

 

 

General

Complete name : Y:\Games\RepackGames.Net – Hacknet\Hacknet\Content\Missions\Misc\TesterCSECIntroMission.xml
File size : 1.10 KiB

 

 

 

General

Complete name : Y:\Games\RepackGames.Net – Hacknet\Hacknet\Content\Missions\Misc\ViperScanEarlyGameComp.xml
File size : 258 Bytes

 

 

 

General

Complete name : Y:\Games\RepackGames.Net – Hacknet\Hacknet\Content\Missions\Mission1.xml
File size : 446 Bytes

 

 

 

General

Complete name : Y:\Games\RepackGames.Net – Hacknet\Hacknet\Content\Missions\Mission2.xml
File size : 865 Bytes

 

 

 

General

Complete name : Y:\Games\RepackGames.Net – Hacknet\Hacknet\Content\Missions\MultiplayerMission.xml
File size : 563 Bytes

 

 

 

General

Complete name : Y:\Games\RepackGames.Net – Hacknet\Hacknet\Content\Missions\SSHCrackComp.xml
File size : 5.03 KiB

 

 

 

General

Complete name : Y:\Games\RepackGames.Net – Hacknet\Hacknet\Content\Missions\SSHCrackMission.xml
File size : 1.68 KiB

 

 

 

General

Complete name : Y:\Games\RepackGames.Net – Hacknet\Hacknet\Content\Missions\TestComputer.xml
File size : 2.23 KiB

 

 

 

General

Complete name : Y:\Games\RepackGames.Net – Hacknet\Hacknet\Content\Missions\Theme\NaixGatewayComp.xml
File size : 2.79 KiB

 

 

 

General

Complete name : Y:\Games\RepackGames.Net – Hacknet\Hacknet\Content\Missions\Theme\ThemeHackComp.xml
File size : 1 004 Bytes

 

 

 

General

Complete name : Y:\Games\RepackGames.Net – Hacknet\Hacknet\Content\Missions\Theme\ThemeHackEndMission.xml
File size : 883 Bytes

 

 

 

General

Complete name : Y:\Games\RepackGames.Net – Hacknet\Hacknet\Content\Missions\Theme\ThemeHackEndMissionFail.xml
File size : 934 Bytes

 

 

 

General

Complete name : Y:\Games\RepackGames.Net – Hacknet\Hacknet\Content\Missions\Theme\ThemeHackEndMissionFailResolved.xml
File size : 720 Bytes

 

 

 

General

Complete name : Y:\Games\RepackGames.Net – Hacknet\Hacknet\Content\Missions\Theme\ThemeHackEndMissionNaixResponseDuplicate.xml
File size : 680 Bytes

 

 

 

General

Complete name : Y:\Games\RepackGames.Net – Hacknet\Hacknet\Content\Missions\Theme\ThemeHackNaixBranch.xml
File size : 651 Bytes

 

 

 

General

Complete name : Y:\Games\RepackGames.Net – Hacknet\Hacknet\Content\Missions\Theme\ThemeHackNaixRudeReply.xml
File size : 722 Bytes

 

 

 

General

Complete name : Y:\Games\RepackGames.Net – Hacknet\Hacknet\Content\Missions\Theme\ThemeHackStartMission.xml
File size : 526 Bytes

 

 

 

General

Complete name : Y:\Games\RepackGames.Net – Hacknet\Hacknet\Content\Missions\Theme\ThemeHackTransitionMissionComp.xml
File size : 556 Bytes

 

 

 

General

Complete name : Y:\Games\RepackGames.Net – Hacknet\Hacknet\Content\MultiplayerIntrotext.txt
File size : 285 Bytes

 

 

 

General

Complete name : Y:\Games\RepackGames.Net – Hacknet\Hacknet\Content\Music\Ambient\AmbientDrone_Clipped.wma
Format : Windows Media
File size : 2.51 MiB
Duration : 1mn 48s
Overall bit rate mode : Constant
Overall bit rate : 195 Kbps
Maximum Overall bit rate : 193 Kbps
Encoded date : UTC 2015-08-13 14:15:56.419

 

Audio

ID : 1
Format : WMA
Format version : Version 2
Codec ID : 161
Codec ID/Info : Windows Media Audio
Description of the codec : Windows Media Audio 9.2 – 192 kbps, 44 kHz, stereo 1-pass CBR
Duration : 1mn 48s
Bit rate mode : Constant
Bit rate : 192 Kbps
Channel(s) : 2 channels
Sampling rate : 44.1 KHz
Bit depth : 16 bits
Stream size : 2.48 MiB (99%)
Language : English (AU)

 

 

 

General

Complete name : Y:\Games\RepackGames.Net – Hacknet\Hacknet\Content\Music\Ambient\AmbientDrone_Clipped.xnb
File size : 138 Bytes

 

 

 

General

Complete name : Y:\Games\RepackGames.Net – Hacknet\Hacknet\Content\Music\Ambient\dark_drone_008.wma
Format : Windows Media
File size : 590 KiB
Duration : 24s 101ms
Overall bit rate mode : Constant
Overall bit rate : 201 Kbps
Maximum Overall bit rate : 193 Kbps
Encoded date : UTC 2015-08-13 14:15:45.471

 

Audio

ID : 1
Format : WMA
Format version : Version 2
Codec ID : 161
Codec ID/Info : Windows Media Audio
Description of the codec : Windows Media Audio 9.2 – 192 kbps, 44 kHz, stereo 1-pass CBR
Duration : 24s 100ms
Bit rate mode : Constant
Bit rate : 192 Kbps
Channel(s) : 2 channels
Sampling rate : 44.1 KHz
Bit depth : 16 bits
Stream size : 565 KiB (96%)
Language : English (AU)

 

 

 

General

Complete name : Y:\Games\RepackGames.Net – Hacknet\Hacknet\Content\Music\Ambient\dark_drone_008.xnb
File size : 132 Bytes

 

 

 

General

Complete name : Y:\Games\RepackGames.Net – Hacknet\Hacknet\Content\Music\Ambient\spiral_gauge_down.xnb
File size : 491 KiB

 

 

 

General

Complete name : Y:\Games\RepackGames.Net – Hacknet\Hacknet\Content\Music\Ambient\spiral_gauge_up.xnb
File size : 482 KiB

 

 

 

General

Complete name : Y:\Games\RepackGames.Net – Hacknet\Hacknet\Content\Music\Bit(Ending).wma
Format : Windows Media
File size : 1.99 MiB
Duration : 1mn 26s
Overall bit rate mode : Constant
Overall bit rate : 193 Kbps
Maximum Overall bit rate : 193 Kbps
Encoded date : UTC 2015-08-13 14:16:01.333

 

Audio

ID : 1
Format : WMA
Format version : Version 2
Codec ID : 161
Codec ID/Info : Windows Media Audio
Description of the codec : Windows Media Audio 9.2 – 192 kbps, 44 kHz, stereo 1-pass CBR
Duration : 1mn 26s
Bit rate mode : Constant
Bit rate : 192 Kbps
Channel(s) : 2 channels
Sampling rate : 44.1 KHz
Bit depth : 16 bits
Stream size : 1.98 MiB (99%)
Language : English (AU)

 

 

 

General

Complete name : Y:\Games\RepackGames.Net – Hacknet\Hacknet\Content\Music\Bit(Ending).xnb
File size : 129 Bytes

 

 

 

General

Complete name : Y:\Games\RepackGames.Net – Hacknet\Hacknet\Content\Music\Broken_Boy.wma
Format : Windows Media
File size : 5.58 MiB
Duration : 4mn 2s
Overall bit rate mode : Constant
Overall bit rate : 193 Kbps
Maximum Overall bit rate : 193 Kbps
Encoded date : UTC 2015-08-13 14:16:22.750

 

Audio

ID : 1
Format : WMA
Format version : Version 2
Codec ID : 161
Codec ID/Info : Windows Media Audio
Description of the codec : Windows Media Audio 9.2 – 192 kbps, 44 kHz, stereo 1-pass CBR
Duration : 4mn 2s
Bit rate mode : Constant
Bit rate : 192 Kbps
Channel(s) : 2 channels
Sampling rate : 44.1 KHz
Bit depth : 16 bits
Stream size : 5.55 MiB (100%)
Language : English (AU)

 

 

 

General

Complete name : Y:\Games\RepackGames.Net – Hacknet\Hacknet\Content\Music\Broken_Boy.xnb
File size : 128 Bytes

 

 

 

General

Complete name : Y:\Games\RepackGames.Net – Hacknet\Hacknet\Content\Music\Irritations.wma
Format : Windows Media
File size : 6.44 MiB
Duration : 4mn 40s
Overall bit rate mode : Constant
Overall bit rate : 193 Kbps
Maximum Overall bit rate : 193 Kbps
Encoded date : UTC 2015-08-13 14:16:26.294

 

Audio

ID : 1
Format : WMA
Format version : Version 2
Codec ID : 161
Codec ID/Info : Windows Media Audio
Description of the codec : Windows Media Audio 9.2 – 192 kbps, 44 kHz, stereo 1-pass CBR
Duration : 4mn 40s
Bit rate mode : Constant
Bit rate : 192 Kbps
Channel(s) : 2 channels
Sampling rate : 44.1 KHz
Bit depth : 16 bits
Stream size : 6.41 MiB (100%)
Language : English (AU)

 

 

 

General

Complete name : Y:\Games\RepackGames.Net – Hacknet\Hacknet\Content\Music\Irritations.xnb
File size : 129 Bytes

 

 

 

General

Complete name : Y:\Games\RepackGames.Net – Hacknet\Hacknet\Content\Music\out_run_the_wolves.wma
Format : Windows Media
File size : 8.15 MiB
Duration : 5mn 54s
Overall bit rate mode : Constant
Overall bit rate : 193 Kbps
Maximum Overall bit rate : 193 Kbps
Encoded date : UTC 2015-08-13 14:16:29.961

 

Audio

ID : 1
Format : WMA
Format version : Version 2
Codec ID : 161
Codec ID/Info : Windows Media Audio
Description of the codec : Windows Media Audio 9.2 – 192 kbps, 44 kHz, stereo 1-pass CBR
Duration : 5mn 54s
Bit rate mode : Constant
Bit rate : 192 Kbps
Channel(s) : 2 channels
Sampling rate : 44.1 KHz
Bit depth : 16 bits
Stream size : 8.12 MiB (100%)
Language : English (AU)

 

 

 

General

Complete name : Y:\Games\RepackGames.Net – Hacknet\Hacknet\Content\Music\out_run_the_wolves.xnb
File size : 136 Bytes

 

 

 

General

Complete name : Y:\Games\RepackGames.Net – Hacknet\Hacknet\Content\Music\Revolve.wma
Format : Windows Media
File size : 6.31 MiB
Duration : 4mn 34s
Overall bit rate mode : Constant
Overall bit rate : 193 Kbps
Maximum Overall bit rate : 193 Kbps
Encoded date : UTC 2015-08-13 14:16:08.640

 

Audio

ID : 1
Format : WMA
Format version : Version 2
Codec ID : 161
Codec ID/Info : Windows Media Audio
Description of the codec : Windows Media Audio 9.2 – 192 kbps, 44 kHz, stereo 1-pass CBR
Duration : 4mn 34s
Bit rate mode : Constant
Bit rate : 192 Kbps
Channel(s) : 2 channels
Sampling rate : 44.1 KHz
Bit depth : 16 bits
Stream size : 6.28 MiB (99%)
Language : English (AU)

 

 

 

General

Complete name : Y:\Games\RepackGames.Net – Hacknet\Hacknet\Content\Music\Revolve.xnb
File size : 125 Bytes

 

 

 

General

Complete name : Y:\Games\RepackGames.Net – Hacknet\Hacknet\Content\Music\Rico_Puestel-Roja_Drifts_By.wma
Format : Windows Media
File size : 13.5 MiB
Duration : 9mn 45s
Overall bit rate mode : Constant
Overall bit rate : 193 Kbps
Maximum Overall bit rate : 193 Kbps
Encoded date : UTC 2015-08-13 14:15:46.769

 

Audio

ID : 1
Format : WMA
Format version : Version 2
Codec ID : 161
Codec ID/Info : Windows Media Audio
Description of the codec : Windows Media Audio 9.2 – 192 kbps, 44 kHz, stereo 1-pass CBR
Duration : 9mn 45s
Bit rate mode : Constant
Bit rate : 192 Kbps
Channel(s) : 2 channels
Sampling rate : 44.1 KHz
Bit depth : 16 bits
Stream size : 13.4 MiB (99%)
Language : English (AU)

 

 

 

General

Complete name : Y:\Games\RepackGames.Net – Hacknet\Hacknet\Content\Music\Rico_Puestel-Roja_Drifts_By.xnb
File size : 145 Bytes

 

 

 

General

Complete name : Y:\Games\RepackGames.Net – Hacknet\Hacknet\Content\Music\Roller_Mobster_Clipped.wma
Format : Windows Media
File size : 4.29 MiB
Duration : 3mn 5s
Overall bit rate mode : Constant
Overall bit rate : 194 Kbps
Maximum Overall bit rate : 193 Kbps
Encoded date : UTC 2015-08-13 14:15:54.300

 

Audio

ID : 1
Format : WMA
Format version : Version 2
Codec ID : 161
Codec ID/Info : Windows Media Audio
Description of the codec : Windows Media Audio 9.2 – 192 kbps, 44 kHz, stereo 1-pass CBR
Duration : 3mn 5s
Bit rate mode : Constant
Bit rate : 192 Kbps
Channel(s) : 2 channels
Sampling rate : 44.1 KHz
Bit depth : 16 bits
Stream size : 4.24 MiB (99%)
Language : English (AU)

 

 

 

General

Complete name : Y:\Games\RepackGames.Net – Hacknet\Hacknet\Content\Music\Roller_Mobster_Clipped.xnb
File size : 140 Bytes

 

 

 

General

Complete name : Y:\Games\RepackGames.Net – Hacknet\Hacknet\Content\Music\Ryan10.wma
Format : Windows Media
File size : 11.8 MiB
Duration : 8mn 32s
Overall bit rate mode : Constant
Overall bit rate : 193 Kbps
Maximum Overall bit rate : 193 Kbps
Encoded date : UTC 2015-08-13 14:16:34.408

 

Audio

ID : 1
Format : WMA
Format version : Version 2
Codec ID : 161
Codec ID/Info : Windows Media Audio
Description of the codec : Windows Media Audio 9.2 – 192 kbps, 44 kHz, stereo 1-pass CBR
Duration : 8mn 32s
Bit rate mode : Constant
Bit rate : 192 Kbps
Channel(s) : 2 channels
Sampling rate : 44.1 KHz
Bit depth : 16 bits
Stream size : 11.7 MiB (99%)
Language : English (AU)

 

 

 

General

Complete name : Y:\Games\RepackGames.Net – Hacknet\Hacknet\Content\Music\Ryan10.xnb
File size : 124 Bytes

 

 

 

General

Complete name : Y:\Games\RepackGames.Net – Hacknet\Hacknet\Content\Music\Ryan3.wma
Format : Windows Media
File size : 9.36 MiB
Duration : 6mn 45s
Overall bit rate mode : Constant
Overall bit rate : 193 Kbps
Maximum Overall bit rate : 193 Kbps
Encoded date : UTC 2015-08-13 14:16:18.400

 

Audio

ID : 1
Format : WMA
Format version : Version 2
Codec ID : 161
Codec ID/Info : Windows Media Audio
Description of the codec : Windows Media Audio 9.2 – 192 kbps, 44 kHz, stereo 1-pass CBR
Duration : 6mn 45s
Bit rate mode : Constant
Bit rate : 192 Kbps
Channel(s) : 2 channels
Sampling rate : 44.1 KHz
Bit depth : 16 bits
Stream size : 9.29 MiB (99%)
Language : English (AU)

 

 

 

General

Complete name : Y:\Games\RepackGames.Net – Hacknet\Hacknet\Content\Music\Ryan3.xnb
File size : 123 Bytes

 

 

 

General

Complete name : Y:\Games\RepackGames.Net – Hacknet\Hacknet\Content\Music\tetrameth.wma
Format : Windows Media
File size : 6.90 MiB
Duration : 4mn 59s
Overall bit rate mode : Constant
Overall bit rate : 193 Kbps
Maximum Overall bit rate : 193 Kbps
Encoded date : UTC 2015-08-13 14:16:40.315

 

Audio

ID : 1
Format : WMA
Format version : Version 2
Codec ID : 161
Codec ID/Info : Windows Media Audio
Description of the codec : Windows Media Audio 9.2 – 192 kbps, 44 kHz, stereo 1-pass CBR
Duration : 4mn 59s
Bit rate mode : Constant
Bit rate : 192 Kbps
Channel(s) : 2 channels
Sampling rate : 44.1 KHz
Bit depth : 16 bits
Stream size : 6.85 MiB (99%)
Language : English (AU)

 

 

 

General

Complete name : Y:\Games\RepackGames.Net – Hacknet\Hacknet\Content\Music\tetrameth.xnb
File size : 127 Bytes

 

 

 

General

Complete name : Y:\Games\RepackGames.Net – Hacknet\Hacknet\Content\Music\TheAlgorithm.wma
Format : Windows Media
File size : 8.39 MiB
Duration : 6mn 3s
Overall bit rate mode : Constant
Overall bit rate : 194 Kbps
Maximum Overall bit rate : 193 Kbps
Encoded date : UTC 2015-08-13 14:16:03.302

 

Audio

ID : 1
Format : WMA
Format version : Version 2
Codec ID : 161
Codec ID/Info : Windows Media Audio
Description of the codec : Windows Media Audio 9.2 – 192 kbps, 44 kHz, stereo 1-pass CBR
Duration : 6mn 3s
Bit rate mode : Constant
Bit rate : 192 Kbps
Channel(s) : 2 channels
Sampling rate : 44.1 KHz
Bit depth : 16 bits
Stream size : 8.33 MiB (99%)
Language : English (AU)

 

 

 

General

Complete name : Y:\Games\RepackGames.Net – Hacknet\Hacknet\Content\Music\TheAlgorithm.xnb
File size : 130 Bytes

 

 

 

General

Complete name : Y:\Games\RepackGames.Net – Hacknet\Hacknet\Content\Music\The_Quickening.wma
Format : Windows Media
File size : 10.6 MiB
Duration : 7mn 40s
Overall bit rate mode : Constant
Overall bit rate : 193 Kbps
Maximum Overall bit rate : 193 Kbps
Encoded date : UTC 2015-08-13 14:16:11.931

 

Audio

ID : 1
Format : WMA
Format version : Version 2
Codec ID : 161
Codec ID/Info : Windows Media Audio
Description of the codec : Windows Media Audio 9.2 – 192 kbps, 44 kHz, stereo 1-pass CBR
Duration : 7mn 40s
Bit rate mode : Constant
Bit rate : 192 Kbps
Channel(s) : 2 channels
Sampling rate : 44.1 KHz
Bit depth : 16 bits
Stream size : 10.5 MiB (100%)
Language : English (AU)

 

 

 

General

Complete name : Y:\Games\RepackGames.Net – Hacknet\Hacknet\Content\Music\The_Quickening.xnb
File size : 132 Bytes

 

 

 

General

Complete name : Y:\Games\RepackGames.Net – Hacknet\Hacknet\Content\Music\Traced.wma
Format : Windows Media
File size : 3.34 MiB
Duration : 2mn 24s
Overall bit rate mode : Constant
Overall bit rate : 194 Kbps
Maximum Overall bit rate : 193 Kbps
Encoded date : UTC 2015-08-13 14:15:58.711

 

Audio

ID : 1
Format : WMA
Format version : Version 2
Codec ID : 161
Codec ID/Info : Windows Media Audio
Description of the codec : Windows Media Audio 9.2 – 192 kbps, 44 kHz, stereo 1-pass CBR
Duration : 2mn 24s
Bit rate mode : Constant
Bit rate : 192 Kbps
Channel(s) : 2 channels
Sampling rate : 44.1 KHz
Bit depth : 16 bits
Stream size : 3.30 MiB (99%)
Language : English (AU)

 

 

 

General

Complete name : Y:\Games\RepackGames.Net – Hacknet\Hacknet\Content\Music\Traced.xnb
File size : 124 Bytes

 

 

 

General

Complete name : Y:\Games\RepackGames.Net – Hacknet\Hacknet\Content\Network\NetworkIPList.txt
File size : 25.0 Bytes

 

 

 

General

Complete name : Y:\Games\RepackGames.Net – Hacknet\Hacknet\Content\NodeCircle.xnb
File size : 16.2 KiB

 

 

 

General

Complete name : Y:\Games\RepackGames.Net – Hacknet\Hacknet\Content\OpenLock.xnb
File size : 4.18 KiB

 

 

 

General

Complete name : Y:\Games\RepackGames.Net – Hacknet\Hacknet\Content\OSXBoot.txt
File size : 4.24 KiB

 

 

 

General

Complete name : Y:\Games\RepackGames.Net – Hacknet\Hacknet\Content\Panel.xnb
File size : 891 Bytes

 

 

 

General

Complete name : Y:\Games\RepackGames.Net – Hacknet\Hacknet\Content\passwords.txt
File size : 1.67 KiB

 

 

 

General

Complete name : Y:\Games\RepackGames.Net – Hacknet\Hacknet\Content\People\01.xml
File size : 1.19 KiB

 

 

 

General

Complete name : Y:\Games\RepackGames.Net – Hacknet\Hacknet\Content\People\02.xml
File size : 455 Bytes

 

 

 

General

Complete name : Y:\Games\RepackGames.Net – Hacknet\Hacknet\Content\People\03.xml
File size : 451 Bytes

 

 

 

General

Complete name : Y:\Games\RepackGames.Net – Hacknet\Hacknet\Content\People\04.xml
File size : 321 Bytes

 

 

 

General

Complete name : Y:\Games\RepackGames.Net – Hacknet\Hacknet\Content\People\05_SlashbotWriter.xml
File size : 641 Bytes

 

 

 

General

Complete name : Y:\Games\RepackGames.Net – Hacknet\Hacknet\Content\People\06_Vapor.xml
File size : 730 Bytes

 

 

 

General

Complete name : Y:\Games\RepackGames.Net – Hacknet\Hacknet\Content\People\07_PPMarketing1.xml
File size : 345 Bytes

 

 

 

General

Complete name : Y:\Games\RepackGames.Net – Hacknet\Hacknet\Content\People\08_PPMarketing2.xml
File size : 357 Bytes

 

 

 

General

Complete name : Y:\Games\RepackGames.Net – Hacknet\Hacknet\Content\People\Author.xml
File size : 801 Bytes

 

 

 

General

Complete name : Y:\Games\RepackGames.Net – Hacknet\Hacknet\Content\People\CSEC_Medical01.xml
File size : 925 Bytes

 

 

 

General

Complete name : Y:\Games\RepackGames.Net – Hacknet\Hacknet\Content\People\CSEC_Pacemaker01.xml
File size : 1.12 KiB

 

 

 

General

Complete name : Y:\Games\RepackGames.Net – Hacknet\Hacknet\Content\People\EnTechBoss.xml
File size : 410 Bytes

 

 

 

General

Complete name : Y:\Games\RepackGames.Net – Hacknet\Hacknet\Content\People\EnTechMedWorker.xml
File size : 950 Bytes

 

 

 

General

Complete name : Y:\Games\RepackGames.Net – Hacknet\Hacknet\Content\People\PressDemo_Medical01.xml
File size : 947 Bytes

 

 

 

General

Complete name : Y:\Games\RepackGames.Net – Hacknet\Hacknet\Content\PersonData\Allergies.txt
File size : 232 Bytes

 

 

 

General

Complete name : Y:\Games\RepackGames.Net – Hacknet\Hacknet\Content\PersonData\FemaleNames.txt
File size : 808 Bytes

 

 

 

General

Complete name : Y:\Games\RepackGames.Net – Hacknet\Hacknet\Content\PersonData\LocationData.txt
File size : 1.78 KiB

 

 

 

General

Complete name : Y:\Games\RepackGames.Net – Hacknet\Hacknet\Content\PersonData\MaleNames.txt
File size : 770 Bytes

 

 

 

General

Complete name : Y:\Games\RepackGames.Net – Hacknet\Hacknet\Content\PersonData\Surnames.txt
File size : 335 Bytes

 

 

 

General

Complete name : Y:\Games\RepackGames.Net – Hacknet\Hacknet\Content\PopupBase.xnb
File size : 16.2 KiB

 

 

 

General

Complete name : Y:\Games\RepackGames.Net – Hacknet\Hacknet\Content\PopupFrame.xnb
File size : 16.2 KiB

 

 

 

General

Complete name : Y:\Games\RepackGames.Net – Hacknet\Hacknet\Content\Post\AdvancedTutorialData.txt
File size : 3.95 KiB

 

 

 

General

Complete name : Y:\Games\RepackGames.Net – Hacknet\Hacknet\Content\Post\BitSpeech.txt
File size : 517 Bytes

 

 

 

General

Complete name : Y:\Games\RepackGames.Net – Hacknet\Hacknet\Content\Post\CreditsData.txt
File size : 2.31 KiB

 

 

 

General

Complete name : Y:\Games\RepackGames.Net – Hacknet\Hacknet\Content\Post\DeathRow.txt
File size : 108 KiB

 

 

 

General

Complete name : Y:\Games\RepackGames.Net – Hacknet\Hacknet\Content\Post\DeathRowServerInfo.txt
File size : 625 Bytes

 

 

 

General

Complete name : Y:\Games\RepackGames.Net – Hacknet\Hacknet\Content\Post\DeathRowSpecials.txt
File size : 481 Bytes

 

 

 

General

Complete name : Y:\Games\RepackGames.Net – Hacknet\Hacknet\Content\Post\DownloadRam.txt
File size : 1.53 KiB

 

 

 

General

Complete name : Y:\Games\RepackGames.Net – Hacknet\Hacknet\Content\Post\eosScannerMail.txt
File size : 983 Bytes

 

 

 

General

Complete name : Y:\Games\RepackGames.Net – Hacknet\Hacknet\Content\Post\MedicalDatabaseInfo.txt
File size : 832 Bytes

 

 

 

General

Complete name : Y:\Games\RepackGames.Net – Hacknet\Hacknet\Content\Post\siteTest.txt
File size : 34.5 KiB

 

 

 

General

Complete name : Y:\Games\RepackGames.Net – Hacknet\Hacknet\Content\Post\TutorialData.txt
File size : 3.85 KiB

 

 

 

General

Complete name : Y:\Games\RepackGames.Net – Hacknet\Hacknet\Content\RadialGradient.xnb
File size : 4.18 KiB

 

 

 

General

Complete name : Y:\Games\RepackGames.Net – Hacknet\Hacknet\Content\rotator.xnb
File size : 3.31 KiB

 

 

 

General

Complete name : Y:\Games\RepackGames.Net – Hacknet\Hacknet\Content\rotator2.xnb
File size : 3.31 KiB

 

 

 

General

Complete name : Y:\Games\RepackGames.Net – Hacknet\Hacknet\Content\rotator3.xnb
File size : 3.31 KiB

 

 

 

General

Complete name : Y:\Games\RepackGames.Net – Hacknet\Hacknet\Content\rotator4.xnb
File size : 3.31 KiB

 

 

 

General

Complete name : Y:\Games\RepackGames.Net – Hacknet\Hacknet\Content\rotator5.xnb
File size : 3.31 KiB

 

 

 

General

Complete name : Y:\Games\RepackGames.Net – Hacknet\Hacknet\Content\SaveIcon.xnb
File size : 4.18 KiB

 

 

 

General

Complete name : Y:\Games\RepackGames.Net – Hacknet\Hacknet\Content\ScanLines.xnb
File size : 256 KiB

 

 

 

General

Complete name : Y:\Games\RepackGames.Net – Hacknet\Hacknet\Content\SFX\beep.xnb
File size : 9.49 KiB

 

 

 

General

Complete name : Y:\Games\RepackGames.Net – Hacknet\Hacknet\Content\SFX\Bip.xnb
File size : 192 KiB

 

 

 

General

Complete name : Y:\Games\RepackGames.Net – Hacknet\Hacknet\Content\SFX\BrightFlash.xnb
File size : 265 KiB

 

 

 

General

Complete name : Y:\Games\RepackGames.Net – Hacknet\Hacknet\Content\SFX\DoomShock.xnb
File size : 567 KiB

 

 

 

General

Complete name : Y:\Games\RepackGames.Net – Hacknet\Hacknet\Content\SFX\EmailSound.xnb
File size : 550 KiB

 

 

 

General

Complete name : Y:\Games\RepackGames.Net – Hacknet\Hacknet\Content\SFX\Ending\EndingSpeech.wav
Format : Wave
File size : 14.0 MiB
Duration : 1mn 23s
Overall bit rate mode : Constant
Overall bit rate : 1 411 Kbps

 

Audio

Format : PCM
Format settings, Endianness : Little
Format settings, Sign : Signed
Codec ID : 1
Duration : 1mn 23s
Bit rate mode : Constant
Bit rate : 1 411.2 Kbps
Channel(s) : 2 channels
Sampling rate : 44.1 KHz
Bit depth : 16 bits
Stream size : 14.0 MiB (100%)

 

 

 

General

Complete name : Y:\Games\RepackGames.Net – Hacknet\Hacknet\Content\SFX\Ending\EndingSpeech.xnb
File size : 14.0 MiB

 

 

 

General

Complete name : Y:\Games\RepackGames.Net – Hacknet\Hacknet\Content\SFX\Ending\PorthackSpindown.xnb
File size : 2.99 MiB

 

 

 

General

Complete name : Y:\Games\RepackGames.Net – Hacknet\Hacknet\Content\SFX\HeartMonitorBeep.xnb
File size : 25.8 KiB

 

 

 

General

Complete name : Y:\Games\RepackGames.Net – Hacknet\Hacknet\Content\SFX\HeartMonitorSustain.xnb
File size : 138 KiB

 

 

 

General

Complete name : Y:\Games\RepackGames.Net – Hacknet\Hacknet\Content\SFX\TraceKill.xnb
File size : 243 KiB

 

 

 

General

Complete name : Y:\Games\RepackGames.Net – Hacknet\Hacknet\Content\Shaders\Bloom.xnb
File size : 656 Bytes

 

 

 

General

Complete name : Y:\Games\RepackGames.Net – Hacknet\Hacknet\Content\Shaders\DangerEffect.xnb
File size : 976 Bytes

 

 

 

General

Complete name : Y:\Games\RepackGames.Net – Hacknet\Hacknet\Content\Shaders\DOFBlur.xnb
File size : 15.0 KiB

 

 

 

General

Complete name : Y:\Games\RepackGames.Net – Hacknet\Hacknet\Content\SlashbotLogo.xnb
File size : 16.2 KiB

 

 

 

General

Complete name : Y:\Games\RepackGames.Net – Hacknet\Hacknet\Content\Sprites\Academic_Logo.xnb
File size : 256 KiB

 

 

 

General

Complete name : Y:\Games\RepackGames.Net – Hacknet\Hacknet\Content\Sprites\Chip.xnb
File size : 977 KiB

 

 

 

General

Complete name : Y:\Games\RepackGames.Net – Hacknet\Hacknet\Content\Sprites\CompLogos\Chip.xnb
File size : 68.9 KiB

 

 

 

General

Complete name : Y:\Games\RepackGames.Net – Hacknet\Hacknet\Content\Sprites\CompLogos\Computer.xnb
File size : 54.7 KiB

 

 

 

General

Complete name : Y:\Games\RepackGames.Net – Hacknet\Hacknet\Content\Sprites\CompLogos\KellisCompIcon.xnb
File size : 68.9 KiB

 

 

 

General

Complete name : Y:\Games\RepackGames.Net – Hacknet\Hacknet\Content\Sprites\CompLogos\Laptop.xnb
File size : 68.9 KiB

 

 

 

General

Complete name : Y:\Games\RepackGames.Net – Hacknet\Hacknet\Content\Sprites\CompLogos\OldServer.xnb
Format : MPEG Audio
File size : 68.9 KiB
Overall bit rate mode : Variable

 

Audio

Format : MPEG Audio
Format version : Version 2.5
Format profile : Layer 3
Mode extension : MS Stereo
Emphasis : CCITT
Bit rate mode : Variable
Channel(s) : 1 channel
Sampling rate : 11.025 KHz
Compression mode : Lossy
Stream size : 57.1 KiB (83%)

 

 

 

General

Complete name : Y:\Games\RepackGames.Net – Hacknet\Hacknet\Content\Sprites\CompLogos\Phone1.xnb
File size : 68.9 KiB

 

 

 

General

Complete name : Y:\Games\RepackGames.Net – Hacknet\Hacknet\Content\Sprites\CompLogos\Phone2.xnb
File size : 68.9 KiB

 

 

 

General

Complete name : Y:\Games\RepackGames.Net – Hacknet\Hacknet\Content\Sprites\CompLogos\Sec0Computer.xnb
File size : 81.3 KiB

 

 

 

General

Complete name : Y:\Games\RepackGames.Net – Hacknet\Hacknet\Content\Sprites\CompLogos\Sec1Computer.xnb
File size : 81.3 KiB

 

 

 

General

Complete name : Y:\Games\RepackGames.Net – Hacknet\Hacknet\Content\Sprites\CompLogos\Sec2Computer.xnb
File size : 24.1 KiB

 

 

 

General

Complete name : Y:\Games\RepackGames.Net – Hacknet\Hacknet\Content\Sprites\CompLogos\Tablet.xnb
File size : 68.9 KiB

 

 

 

General

Complete name : Y:\Games\RepackGames.Net – Hacknet\Hacknet\Content\Sprites\DeathRowLogo.xnb
File size : 64.2 KiB

 

 

 

General

Complete name : Y:\Games\RepackGames.Net – Hacknet\Hacknet\Content\Sprites\Duck.xnb
File size : 977 KiB

 

 

 

General

Complete name : Y:\Games\RepackGames.Net – Hacknet\Hacknet\Content\Sprites\Hammer.xnb
File size : 977 KiB

 

 

 

General

Complete name : Y:\Games\RepackGames.Net – Hacknet\Hacknet\Content\Sprites\HubDecoration.xnb
File size : 40.8 KiB

 

 

 

General

Complete name : Y:\Games\RepackGames.Net – Hacknet\Hacknet\Content\Sprites\HubDecorationSide.xnb
File size : 1.84 KiB

 

 

 

General

Complete name : Y:\Games\RepackGames.Net – Hacknet\Hacknet\Content\Sprites\Icons\CautionIcon.xnb
File size : 215 KiB

 

 

 

General

Complete name : Y:\Games\RepackGames.Net – Hacknet\Hacknet\Content\Sprites\Icons\CautionIconBG.xnb
File size : 215 KiB

 

 

 

General

Complete name : Y:\Games\RepackGames.Net – Hacknet\Hacknet\Content\Sprites\Icons\Heart.xnb
File size : 64.2 KiB

 

 

 

General

Complete name : Y:\Games\RepackGames.Net – Hacknet\Hacknet\Content\Sprites\Icons\O2Img.xnb
File size : 64.2 KiB

 

 

 

General

Complete name : Y:\Games\RepackGames.Net – Hacknet\Hacknet\Content\Sprites\KellisLogo.xnb
File size : 494 KiB

 

 

 

General

Complete name : Y:\Games\RepackGames.Net – Hacknet\Hacknet\Content\Sprites\MedicalLogo.xnb
File size : 293 KiB

 

 

 

General

Complete name : Y:\Games\RepackGames.Net – Hacknet\Hacknet\Content\Sprites\Misc\Hexagon.xnb
File size : 198 KiB

 

 

 

General

Complete name : Y:\Games\RepackGames.Net – Hacknet\Hacknet\Content\Sprites\Misc\HexOutline.xnb
File size : 198 KiB

 

 

 

General

Complete name : Y:\Games\RepackGames.Net – Hacknet\Hacknet\Content\Sprites\Page.xnb
File size : 977 KiB

 

 

 

General

Complete name : Y:\Games\RepackGames.Net – Hacknet\Hacknet\Content\Sprites\Snake.xnb
File size : 624 KiB

 

 

 

General

Complete name : Y:\Games\RepackGames.Net – Hacknet\Hacknet\Content\Sprites\SpeechBubble.xnb
File size : 977 KiB

 

 

 

General

Complete name : Y:\Games\RepackGames.Net – Hacknet\Hacknet\Content\Sprites\Spinner.xnb
File size : 156 KiB

 

 

 

General

Complete name : Y:\Games\RepackGames.Net – Hacknet\Hacknet\Content\Sprites\Star.xnb
File size : 64.2 KiB

 

 

 

General

Complete name : Y:\Games\RepackGames.Net – Hacknet\Hacknet\Content\Sprites\Sun.xnb
File size : 678 KiB

 

 

 

General

Complete name : Y:\Games\RepackGames.Net – Hacknet\Hacknet\Content\Sprites\ThinCircleOutline.xnb
File size : 256 KiB

 

 

 

General

Complete name : Y:\Games\RepackGames.Net – Hacknet\Hacknet\Content\StripePattern.xnb
File size : 6.43 KiB

 

 

 

General

Complete name : Y:\Games\RepackGames.Net – Hacknet\Hacknet\Content\Stripes.xnb
File size : 16.2 KiB

 

 

 

General

Complete name : Y:\Games\RepackGames.Net – Hacknet\Hacknet\Content\TargetNodeCircle.xnb
File size : 16.2 KiB

 

 

 

General

Complete name : Y:\Games\RepackGames.Net – Hacknet\Hacknet\Content\Themes\AbstractBlurry.xnb
File size : 8.79 MiB

 

 

 

General

Complete name : Y:\Games\RepackGames.Net – Hacknet\Hacknet\Content\Themes\AbstractWaves.xnb
File size : 8.79 MiB

 

 

 

General

Complete name : Y:\Games\RepackGames.Net – Hacknet\Hacknet\Content\Themes\AwayTooLong.xnb
File size : 7.91 MiB

 

 

 

General

Complete name : Y:\Games\RepackGames.Net – Hacknet\Hacknet\Content\Themes\BlueCirclesBackground.xnb
File size : 7.91 MiB

 

 

 

General

Complete name : Y:\Games\RepackGames.Net – Hacknet\Hacknet\Content\Themes\DarkCirclesBackground.xnb
File size : 7.91 MiB

 

 

 

General

Complete name : Y:\Games\RepackGames.Net – Hacknet\Hacknet\Content\Themes\DarkenedAway.xnb
File size : 7.91 MiB

 

 

 

General

Complete name : Y:\Games\RepackGames.Net – Hacknet\Hacknet\Content\Themes\GreenAbstract.xnb
File size : 4.94 MiB

 

 

 

General

Complete name : Y:\Games\RepackGames.Net – Hacknet\Hacknet\Content\Themes\NoThemeWallpaper.xnb
File size : 3.91 MiB

 

 

 

General

Complete name : Y:\Games\RepackGames.Net – Hacknet\Hacknet\Content\Themes\Razzamataz2.xnb
File size : 7.91 MiB

 

 

 

General

Complete name : Y:\Games\RepackGames.Net – Hacknet\Hacknet\Content\Themes\WaterWashGreen2.xnb
File size : 7.91 MiB

 

 

 

General

Complete name : Y:\Games\RepackGames.Net – Hacknet\Hacknet\Content\Themes\WhiteLines.xnb
File size : 8.79 MiB

 

 

 

General

Complete name : Y:\Games\RepackGames.Net – Hacknet\Hacknet\Content\ThinStripe.xnb
File size : 16.2 KiB

 

 

 

General

Complete name : Y:\Games\RepackGames.Net – Hacknet\Hacknet\Content\UnopenedMail.xnb
File size : 2.53 KiB

 

 

 

General

Complete name : Y:\Games\RepackGames.Net – Hacknet\Hacknet\Content\Usernames.txt
File size : 3.19 KiB

 

 

 

General

Complete name : Y:\Games\RepackGames.Net – Hacknet\Hacknet\Content\Web\404Page.html
File size : 758 Bytes

 

 

 

General

Complete name : Y:\Games\RepackGames.Net – Hacknet\Hacknet\Content\Web\BaseCorporatePage.html
File size : 1.72 KiB

 

 

 

General

Complete name : Y:\Games\RepackGames.Net – Hacknet\Hacknet\Content\Web\BaseCorporateRecruiterPage.html
File size : 1.48 KiB

 

 

 

General

Complete name : Y:\Games\RepackGames.Net – Hacknet\Hacknet\Content\Web\BaseImageWebPage.html
File size : 875 Bytes

 

 

 

General

Complete name : Y:\Games\RepackGames.Net – Hacknet\Hacknet\Content\Web\BaseWebPage.html
File size : 1.05 KiB

 

 

 

General

Complete name : Y:\Games\RepackGames.Net – Hacknet\Hacknet\Content\Web\Cache\centredarkstyle.css
File size : 719 Bytes

 

 

 

General

Complete name : Y:\Games\RepackGames.Net – Hacknet\Hacknet\Content\Web\Cache\corporatestyle.css
File size : 869 Bytes

 

 

 

General

Complete name : Y:\Games\RepackGames.Net – Hacknet\Hacknet\Content\Web\Cache\darkstyle.css
File size : 719 Bytes

 

 

 

General

Complete name : Y:\Games\RepackGames.Net – Hacknet\Hacknet\Content\Web\Cache\decStyle.css
File size : 711 Bytes

 

 

 

General

Complete name : Y:\Games\RepackGames.Net – Hacknet\Hacknet\Content\Web\Cache\Images\dec_diagram.png
Format : PNG
Format/Info : Portable Network Graphic
File size : 56.1 KiB

 

Image

Format : PNG
Format/Info : Portable Network Graphic
Width : 657 pixels
Height : 467 pixels
Bit depth : 24 bits
Compression mode : Lossless
Stream size : 56.1 KiB (100%)

 

 

 

General

Complete name : Y:\Games\RepackGames.Net – Hacknet\Hacknet\Content\Web\Cache\Images\dec_header.png
Format : PNG
Format/Info : Portable Network Graphic
File size : 6.07 KiB

 

Image

Format : PNG
Format/Info : Portable Network Graphic
Width : 363 pixels
Height : 61 pixels
Bit depth : 24 bits
Compression mode : Lossless
Stream size : 6.07 KiB (100%)

 

 

 

General

Complete name : Y:\Games\RepackGames.Net – Hacknet\Hacknet\Content\Web\Cache\Images\EnTechLogo.png
Format : PNG
Format/Info : Portable Network Graphic
File size : 13.6 KiB

 

Image

Format : PNG
Format/Info : Portable Network Graphic
Width : 400 pixels
Height : 250 pixels
Bit depth : 32 bits
Compression mode : Lossless
Stream size : 13.6 KiB (100%)

 

 

 

General

Complete name : Y:\Games\RepackGames.Net – Hacknet\Hacknet\Content\Web\Cache\Images\EnTechLogoHires.png
Format : PNG
Format/Info : Portable Network Graphic
File size : 23.9 KiB

 

Image

Format : PNG
Format/Info : Portable Network Graphic
Width : 700 pixels
Height : 438 pixels
Bit depth : 32 bits
Compression mode : Lossless
Stream size : 23.9 KiB (100%)

 

 

 

General

Complete name : Y:\Games\RepackGames.Net – Hacknet\Hacknet\Content\Web\Cache\Images\kfcBackground.png
Format : PNG
Format/Info : Portable Network Graphic
File size : 528 KiB

 

Image

Format : PNG
Format/Info : Portable Network Graphic
Width : 999 pixels
Height : 582 pixels
Bit depth : 24 bits
Compression mode : Lossless
Stream size : 528 KiB (100%)

 

 

 

General

Complete name : Y:\Games\RepackGames.Net – Hacknet\Hacknet\Content\Web\Cache\Images\pen.jpg
Format : JPEG
File size : 12.1 KiB

 

Image

Format : JPEG
Width : 220 pixels
Height : 178 pixels
Color space : YUV
Chroma subsampling : 4:2:0
Bit depth : 8 bits
Compression mode : Lossy
Stream size : 12.1 KiB (100%)

 

 

 

General

Complete name : Y:\Games\RepackGames.Net – Hacknet\Hacknet\Content\Web\Cache\Images\PolarSnake.png
Format : PNG
Format/Info : Portable Network Graphic
File size : 28.0 KiB

 

Image

Format : PNG
Format/Info : Portable Network Graphic
Width : 300 pixels
Height : 489 pixels
Bit depth : 32 bits
Compression mode : Lossless
Stream size : 28.0 KiB (100%)

 

 

 

General

Complete name : Y:\Games\RepackGames.Net – Hacknet\Hacknet\Content\Web\Cache\Images\SmallWorldMap.png
Format : PNG
Format/Info : Portable Network Graphic
File size : 52.1 KiB

 

Image

Format : PNG
Format/Info : Portable Network Graphic
Width : 532 pixels
Height : 265 pixels
Bit depth : 32 bits
Compression mode : Lossless
Stream size : 52.1 KiB (100%)

 

 

 

General

Complete name : Y:\Games\RepackGames.Net – Hacknet\Hacknet\Content\Web\Cache\KFCStyle.css
File size : 366 Bytes

 

 

 

General

Complete name : Y:\Games\RepackGames.Net – Hacknet\Hacknet\Content\Web\Presets\DEC\DECMainPage.html
File size : 978 Bytes

 

 

 

General

Complete name : Y:\Games\RepackGames.Net – Hacknet\Hacknet\Content\Web\Presets\EnTech\EnTechPublicPage.html
File size : 948 Bytes

 

 

 

General

Complete name : Y:\Games\RepackGames.Net – Hacknet\Hacknet\Content\Web\Presets\KFC\KFCHomePage.html
File size : 819 Bytes

 

 

 

General

Complete name : Y:\Games\RepackGames.Net – Hacknet\Hacknet\Content\Web\Presets\lelzSec\ShrineOfThePolarSnake.html
File size : 1 004 Bytes

 

 

 

General

Complete name : Y:\Games\RepackGames.Net – Hacknet\Hacknet\Content\Web\Presets\Nortron\NortronPublicPage.html
File size : 1.06 KiB

 

 

 

General

Complete name : Y:\Games\RepackGames.Net – Hacknet\Hacknet\EULA.txt
File size : 14.1 KiB

 

 

 

General

Complete name : Y:\Games\RepackGames.Net – Hacknet\Hacknet\GameuxInstallHelper.dll
Format : MZ
Format profile : DLL / Intel i386
File size : 94.0 KiB
Encoded date : UTC 2008-03-05 23:51:21

 

 

 

General

Complete name : Y:\Games\RepackGames.Net – Hacknet\Hacknet\gog.ico
Format : ICO
File size : 67.6 KiB

 

Image #1

Width : 48 pixels
Height : 48 pixels
Bit depth : 8 bits
Stream size : 3.66 KiB (5%)

 

Image #2

Width : 32 pixels
Height : 32 pixels
Bit depth : 8 bits
Stream size : 2.16 KiB (3%)

 

Image #3

Width : 16 pixels
Height : 16 pixels
Bit depth : 8 bits
Stream size : 1.35 KiB (2%)

 

Image #4

Width : 256 pixels
Height : 256 pixels
Bit depth : 32 bits
Stream size : 45.7 KiB (68%)

 

Image #5

Width : 48 pixels
Height : 48 pixels
Bit depth : 32 bits
Stream size : 9.41 KiB (14%)

 

Image #6

Width : 32 pixels
Height : 32 pixels
Bit depth : 32 bits
Stream size : 4.16 KiB (6%)

 

Image #7

Width : 16 pixels
Height : 16 pixels
Bit depth : 32 bits
Stream size : 1.10 KiB (2%)

 

 

 

General

Complete name : Y:\Games\RepackGames.Net – Hacknet\Hacknet\goggame-1439474400.dll
Format : MZ
Format profile : DLL / Intel i386
File size : 261 KiB
Encoded date : UTC 2015-08-14 12:20:19

 

 

 

General

Complete name : Y:\Games\RepackGames.Net – Hacknet\Hacknet\goggame-1439474400.hashdb
Format : ZIP
File size : 15.0 KiB

 

 

 

General

Complete name : Y:\Games\RepackGames.Net – Hacknet\Hacknet\goggame-1439474400.ico
Format : ICO
File size : 118 KiB

 

Image #1

Width : 32 pixels
Height : 32 pixels
Bit depth : 4 bits
Stream size : 744 Bytes (1%)

 

Image #2

Width : 16 pixels
Height : 16 pixels
Bit depth : 4 bits
Stream size : 296 Bytes (0%)

 

Image #3

Width : 48 pixels
Height : 48 pixels
Bit depth : 8 bits
Stream size : 3.66 KiB (3%)

 

Image #4

Width : 32 pixels
Height : 32 pixels
Bit depth : 8 bits
Stream size : 2.16 KiB (2%)

 

Image #5

Width : 16 pixels
Height : 16 pixels
Bit depth : 8 bits
Stream size : 1.35 KiB (1%)

 

Image #6

Width : 256 pixels
Height : 256 pixels
Bit depth : 32 bits
Stream size : 94.6 KiB (80%)

 

Image #7

Width : 48 pixels
Height : 48 pixels
Bit depth : 32 bits
Stream size : 9.41 KiB (8%)

 

Image #8

Width : 32 pixels
Height : 32 pixels
Bit depth : 32 bits
Stream size : 4.16 KiB (4%)

 

Image #9

Width : 16 pixels
Height : 16 pixels
Bit depth : 32 bits
Stream size : 1.10 KiB (1%)

 

 

 

General

Complete name : Y:\Games\RepackGames.Net – Hacknet\Hacknet\goggame-1439474400.info
File size : 488 Bytes

 

 

Hacknet Repack Free Download

——————————————————————————-
Post Information
——————————————————————————-
Posted by…………: RepackGames.Net
Fills Policy………: Ask for them nicely
Repost Policy……..: 5 days after original post

——————————————————————————-

Hacknet Repack Free Download

——————————————————————————-
Release Notes
——————————————————————————-

Visit www.RepackGames.Net to get latest repack (highly compressed) PC games for free.

——————————————————————————-

Hacknet Repack Free Download

Here are quick steps how to installing Hacknet Repack PC Game, make sure you follow the steps that we have given below correctly.

How to Install
  1. Unrar with latest winRAR version.
  2. Run “setup.exe”.
  3. Run the game from shortcut in “start” menu or dekstop shortcut.
  4. Support the software developers. If you like this game, please buy it! Thank you very much.

Note
  1. Block the game’s exe in your firewall to prevent the game from trying to go online.
  2. If you install games to your systemdrive, it may be necessary to run this game with admin privileges instead.

Hacknet Repack Free Download

Download Hacknet Repack from this website. RepackGames.Net offering this latest repack game for free. Get working repack game without bugs and error. We had posted direct download links to download this game for PC (Personal Computer) without cost (100% free). The latest and updated game by the publishers are given here. Download Hacknet Repack in highly compressed form without viruses. This game have been repacked by trusted group. Download complete game (include crack, update, hotfix, etc) from here. RepackGames.Net also provides crack-patch of this game. In this post, we also insert the trailer of the game, so before downloading this game please take your time first to watch the trailer that already we served, click on Trailer tab above. Please install it using recommended settings. Enjoy playing this amazing game for free on your PC. Share with friends. Thanks for having look over our work! Please note that this game is hosted on a third-party file sharing website, and it is not affiliated with RepackGames.Net.

Incoming search terms:

Tags: #Hacknet Highly Compressed #Hacknet PC Game Repack Free Download #Hacknet Repack #Hacknet Repack Crack #Hacknet Repack Download #Hacknet Repack Free #Hacknet Repack Free Download #Hacknet Repack Full Version