Funk of Titans Repack Free Download

247 views

Funk of Titans Repack Free Download

Funk of Titans Repack Free Download

AboutFeaturesScreenshotsTrailerSystem Requirements.NFO

Basic Information

Funk of Titans Repack Free Download PC Game setup for Windows operating system (OS). Funk of Titans Repack is a Action, Adventure, Casual game. Funk of Titans Repack is a PC game that developed and published by A Crowd of Monsters and Merge Games. Funk of Titans Repack game was released on 24, July 2015. The size of this game is 470 MB (492,979,615 bytes). It was released for all platforms, but we are only offering this game to play only on PC/Windows. It supports single player mode only.

Description

PERSEUS IS THE CHOSEN ONE… AND KNOWS FUNK FU!

Funk is the music of Gods. Zeus, the father of all of them, created and shared it with the rest of the Universe. The humans have been dancing to and singing funky songs since the birth of time and give thanks to Zeus for receiving this blessing.

Now, however, Pagan Titans have created other rhythms in the form of Pop, Rock and Rap and they are using them to influence the humans, turning them into empty headed, dancing minions.

In these difficult times, Zeus has summoned his son and Funky Champion, Perseus, to confront and defeat the Titans. Guide Perseus through more than 40 levels of ancient Greek mythology spread over the three worlds of Pop, Rock and Rap. Collect different helmets and weapons, compete in bonus stages and ride Pegasus to glory. Only one style of music can survive and the Funk is the music of the gods.

Game Features:
  • Over 40 levels
  • Groovy platforming
  • Funk-Fu, ancient Greece, gods and demigods
  • Fight to restore the funk by defeating Pop, Rock and Rap
  • Ride your pimped-out Pegaus

Repack Features:
  • Based on FLT ISO release: flt-fuot.iso (1.38 GB).
  • MD5 Perfect: all files are identical to originals after installation.
  • Version of the game v1.0.
  • NOTHING ripped, NOTHING re-encoded, pure only repack.
  • Significantly smaller archive size (compressed from 1.38 GB to 470 MB)
  • Installation takes 3-4 minutes (depending on your PC performance).
  • Work perfectly.
  • Repack by RepackGames.Net.

Funk of Titans Repack Free Download

Snapshot of Funk of Titans Repack

Image of Funk of Titans Repack

This game system requirements are described in the content below. With these specifications, the game will run smoothly and graphics would be crystal clear. A machine (CPU) better than these specifications is most beneficiary.

MINIMUM:
  • OS: Windows XP SP2 or better
  • Processor: 1.80GHz or better
  • Memory: 2 GB RAM
  • Graphics: 512mb or better
  • DirectX: Version 9.0
  • Hard Drive: 2 GB available space
  • Sound Card: Windows compatible card

RECOMMENDED:

*******************************************************************************

Funk of Titans Repack Free Download

Download Free Repack Games – RepackGames.Net

*******************************************************************************
Funk of Titans Repack
*******************************************************************************

Funk of Titans Repack Free Download

——————————————————————————-
General Information
——————————————————————————-

 

 

General

Complete name : A:\Highly Compressed PC Games Hawk\Games\RepackGames.Net – Funk of Titans\Funk of Titans\steam_appid.txt
File size : 6.00 Bytes

 

 

 

General

Complete name : A:\Highly Compressed PC Games Hawk\Games\RepackGames.Net – Funk of Titans\Funk of Titans\unins000.dat
File size : 63.2 KiB

 

 

 

General

Complete name : A:\Highly Compressed PC Games Hawk\Games\RepackGames.Net – Funk of Titans\Funk of Titans\unins000.exe
Format : MZ
Format profile : Executable / Intel i386
File size : 1.14 MiB
Encoded date : UTC 2013-10-13 08:19:33

 

 

 

General

Complete name : A:\Highly Compressed PC Games Hawk\Games\RepackGames.Net – Funk of Titans\Funk of Titans\FunkOfTitans.exe
Format : MZ
Format profile : Executable / Intel i386
File size : 10.8 MiB
Encoded date : UTC 2015-04-22 14:45:55

 

 

 

General

Complete name : A:\Highly Compressed PC Games Hawk\Games\RepackGames.Net – Funk of Titans\Funk of Titans\icon.ico
Format : ICO
File size : 361 KiB

 

Image #1

Width : 16 pixels
Height : 16 pixels
Bit depth : 32 bits
Stream size : 1.10 KiB (0%)

 

Image #2

Width : 32 pixels
Height : 32 pixels
Bit depth : 32 bits
Stream size : 4.16 KiB (1%)

 

Image #3

Width : 48 pixels
Height : 48 pixels
Bit depth : 32 bits
Stream size : 9.41 KiB (3%)

 

Image #4

Width : 64 pixels
Height : 64 pixels
Bit depth : 32 bits
Stream size : 16.5 KiB (5%)

 

Image #5

Width : 128 pixels
Height : 128 pixels
Bit depth : 32 bits
Stream size : 66.0 KiB (18%)

 

Image #6

Width : 256 pixels
Height : 256 pixels
Bit depth : 32 bits
Stream size : 264 KiB (73%)

 

 

 

General

Complete name : A:\Highly Compressed PC Games Hawk\Games\RepackGames.Net – Funk of Titans\Funk of Titans\steam_api.dll
Format : MZ
Format profile : DLL / Intel i386
File size : 343 KiB
Encoded date : UTC 2015-07-02 14:46:07

 

 

Funk of Titans Repack Free Download

——————————————————————————-
Post Information
——————————————————————————-
Posted by…………: RepackGames.Net
Fills Policy………: Ask for them nicely
Repost Policy……..: 5 days after original post

——————————————————————————-

Funk of Titans Repack Free Download

——————————————————————————-
Release Notes
——————————————————————————-

Visit www.RepackGames.Net to get latest repack (highly compressed) PC games for free.

——————————————————————————-

Funk of Titans Repack Free Download

Here are quick steps how to installing Funk of Titans Repack PC Game, make sure you follow the steps that we have given below correctly.

How to Install
  1. Unrar with latest winRAR version.
  2. Run “setup.exe”.
  3. Run the game from shortcut in “start” menu or dekstop shortcut.
  4. Support the software developers. If you like this game, please buy it! Thank you very much.

Note
  1. Block the game’s exe in your firewall to prevent the game from trying to go online.
  2. If you install games to your systemdrive, it may be necessary to run this game with admin privileges instead.

Funk of Titans Repack Free Download

Download Funk of Titans Repack from this website. RepackGames.Net offering this latest repack game for free. Get working repack game without bugs and error. We had posted direct download links to download this game for PC (Personal Computer) without cost (100% free). The latest and updated game by the publishers are given here. Download Funk of Titans Repack in highly compressed form without viruses. This game have been repacked by trusted group. Download complete game (include crack, update, hotfix, etc) from here. RepackGames.Net also provides crack-patch of this game. In this post, we also insert the trailer of the game, so before downloading this game please take your time first to watch the trailer that already we served, click on Trailer tab above. Please install it using recommended settings. Enjoy playing this amazing game for free on your PC. Share with friends. Thanks for having look over our work! Please note that this game is hosted on a third-party file sharing website, and it is not affiliated with RepackGames.Net.

Incoming search terms:

Tags: #FLT #Funk of Titans Highly Compressed #Funk of Titans PC Game Repack Free Download #Funk of Titans Repack #Funk of Titans Repack Crack #Funk of Titans Repack Download #Funk of Titans Repack Free #Funk of Titans Repack Free Download #Funk of Titans Repack Full Version