DGU Repack Free Download

222 views

DGU Repack Free Download

DGU Repack Free Download

AboutFeaturesScreenshotsTrailerSystem Requirements.NFO

Basic Information

DGU Repack Free Download PC Game setup for Windows operating system (OS). DGU Repack is a Action, Adventure, Casual, Indie, Strategy game. DGU Repack is a PC game that developed and published by DSK Studios Pvt. Ltd. DGU Repack game was released on 15 July, 2015. The size of this game is 3.48 GB (3,743,470,616 bytes). It was released for all platforms, but we are only offering this game to play only on PC/Windows. It supports single player mode only.

Description

Death God University Overview
DGU is a 3rd person 3D adventure/puzzle game where the player plays as a student of the Death God University studying to become a death god assistant.
Set in a wacky world, DGU takes its inspiration in the old point and click adventure / puzzle games like Day of the Tentacle or Sam & Max or Monkey Island.
In order to get graduated and pass to the next class, the player needs to kill collect souls of targets assigned to him by his teachers.
To do this, the player needs to gather items and craft deadly traps, decoy devices and/or use the environment to his advantage!
There is only one rule! It must look like an accident.

Game Features:
  • Explore the world and find the various items you need to create crazy death devices.
  • Talk with people to get information, clues and whereabouts of your targets.
  • Plan carefully your actions to not get seen by innocent witnesses.
  • Avoid collateral damages.
  • Use the weaknesses of your targets against themselves.
  • Fulfil the parameters of your assignment to get the best grade from your teachers.

Repack Features:
  • Based on FLT ISO release: codex-flt-dgux .iso (13.8 GB).
  • MD5 Perfect: all files are identical to originals after installation.
  • Version of the game v1.0.
  • NOTHING ripped, NOTHING re-encoded, pure only repack.
  • Significantly smaller archive size (compressed from 13.8 GB to 3.48 GB)
  • Installation takes 3-4 minutes (depending on your PC performance).
  • Work perfectly.
  • Repack by RepackGames.Net.

DGU Repack Free Download

Snapshot of DGU Repack

Image of DGU Repack

This game system requirements are described in the content below. With these specifications, the game will run smoothly and graphics would be crystal clear. A machine (CPU) better than these specifications is most beneficiary.

MINIMUM:
  • OS: windows 7/8 64 bit
  • Processor: Quad-core Intel or AMD, 2.5 GHz or faster
  • Memory: 8 GB RAM
  • Graphics: NVIDIA GeForce 470 GTX or AMD Radeon 6870 HD series or higher
  • DirectX: Version 10

RECOMMENDED:

*******************************************************************************

DGU Repack Free Download

Download Free Repack Games – RepackGames.Net

*******************************************************************************
DGU Repack
*******************************************************************************

DGU Repack Free Download

——————————————————————————-
General Information
——————————————————————————-

 

 

General

Complete name : A:\Highly Compressed PC Games Hawk\Games\RepackGames.Net – DGU\DGU\icon.ico
Format : ICO
File size : 4.19 KiB

 

Image

Width : 32 pixels
Height : 32 pixels
Bit depth : 32 bits
Stream size : 4.16 KiB (99%)

 

 

 

General

Complete name : A:\Highly Compressed PC Games Hawk\Games\RepackGames.Net – DGU\DGU\Manifest_NonUFSFiles.txt
File size : 35.3 KiB

 

 

 

General

Complete name : A:\Highly Compressed PC Games Hawk\Games\RepackGames.Net – DGU\DGU\unins000.dat
Format : MPEG Audio
File size : 122 KiB
Duration : 6s 49ms
Overall bit rate mode : Constant
Overall bit rate : 160 Kbps

 

Audio

Format : MPEG Audio
Format version : Version 1
Format profile : Layer 1
Duration : 6s 121ms
Bit rate mode : Constant
Bit rate : 160 Kbps
Channel(s) : 2 channels
Sampling rate : 44.1 KHz
Compression mode : Lossy
Stream size : 118 KiB (97%)

 

 

 

General

Complete name : A:\Highly Compressed PC Games Hawk\Games\RepackGames.Net – DGU\DGU\unins000.exe
Format : MZ
Format profile : Executable / Intel i386
File size : 1.14 MiB
Encoded date : UTC 2013-10-13 08:19:33

 

 

 

General

Complete name : A:\Highly Compressed PC Games Hawk\Games\RepackGames.Net – DGU\DGU\DGU.exe
Format : MZ
Format profile : Executable / AMD x86-64
File size : 448 KiB
Encoded date : UTC 2015-06-18 15:36:58

 

 

DGU Repack Free Download

——————————————————————————-
Post Information
——————————————————————————-
Posted by…………: RepackGames.Net
Fills Policy………: Ask for them nicely
Repost Policy……..: 5 days after original post

——————————————————————————-

DGU Repack Free Download

——————————————————————————-
Release Notes
——————————————————————————-

Visit www.RepackGames.Net to get latest repack (highly compressed) PC games for free.

——————————————————————————-

DGU Repack Free Download

Here are quick steps how to installing DGU Repack PC Game, make sure you follow the steps that we have given below correctly.

How to Install
  1. Unrar with latest winRAR version.
  2. Run “setup.exe”.
  3. Start the game from your dekstop.
  4. Support the software developers. If you like this game, please buy it! Thank you very much.

Note
  1. Block the game’s exe in your firewall to prevent the game from trying to go online.
  2. If you install games to your systemdrive, it may be necessary to run this game with admin privileges instead.

DGU Repack Free Download

Download DGU Repack from this website. RepackGames.Net offering this latest repack game for free. Get working repack game without bugs and error. We had posted direct download links to download this game for PC (Personal Computer) without cost (100% free). The latest and updated game by the publishers are given here. Download DGU Repack in highly compressed form without viruses. This game have been repacked by trusted group. Download complete game (include crack, update, hotfix, etc) from here. RepackGames.Net also provides crack-patch of this game. In this post, we also insert the trailer of the game, so before downloading this game please take your time first to watch the trailer that already we served, click on Trailer tab above. Please install it using recommended settings. Enjoy playing this amazing game for free on your PC. Share with friends. Thanks for having look over our work! Please note that this game is hosted on a third-party file sharing website, and it is not affiliated with RepackGames.Net.

Tags: #DGU Highly Compressed #DGU PC Game Repack Free Download #DGU Repack #DGU Repack Crack #DGU Repack Download #DGU Repack Free #DGU Repack Free Download #DGU Repack Full Version #FLT