Corpse of Discovery Repack Free Download

145 views

Corpse of Discovery Repack Free Download

Corpse of Discovery Repack Free Download

AboutFeaturesScreenshotsTrailerSystem Requirements.NFO

Basic Information

Corpse of Discovery Repack Free Download PC Game setup for Windows operating system (OS). Corpse of Discovery Repack is a Adventure, Indie game. Corpse of Discovery Repack is a PC game that developed and published by Phosphor Games. Corpse of Discovery Repack game was released on 25, August 2015. The size of this game is 2.34 GB (2,522,347,338 bytes). It was released for all platforms, but we are only offering this game to play only on PC/Windows. It supports single player mode only.

You may also like Shelter 2 Mountains Repack.

Description

Corpse of Discovery is a thought-provoking first-person planetary exploration game located on a myriad of unexplored planets. As the player, all you know is that to return home, you must complete the mission at-hand for the Corps of Discovery. However, with each mission completed, you’re left with unresolved questions and zero answers.

Game Features:
  • Mature and Deep Narrative: A thought-provoking exploration game, set in space, about life’s revelations, misguided expectations, disappointments and self-discovery.
  • Fantastic Alien Landscapes: Explore undiscovered worlds that go on for miles, each world more astounding and beautiful than the last.
  • Immersive Investigative Gameplay: Examine your environment to understand new lifeforms, appreciate history, and re-live your precious memories.
  • Environmental challenges: Experience unique planetary hazards and gameplay mechanics like deadly solar radiation, powerful wind storms, lava oceans, and floating islands only reachable by jetpack.

Repack Features:
  • Based on RELOADED ISO release: rld-coofdi.iso (2.79 GB).
  • MD5 Perfect: all files are identical to originals after installation.
  • Version of the game v4.6.6.2256.
  • NOTHING ripped, NOTHING re-encoded, only repack.
  • Significantly smaller archive size (compressed from 2.79 GB to 2.34 MB)
  • Installation takes 3-4 minutes (depending on your PC performance).
  • Work perfectly.
  • Repack by RepackGames.Net.

Corpse of Discovery Repack Free Download

Snapshot of Corpse of Discovery Repack

This game system requirements are described in the content below. With these specifications, the game will run smoothly and graphics would be crystal clear. A machine (CPU) better than these specifications is most beneficiary.

MINIMUM:
  • OS: Windows 7
  • Processor: Intel Core 2 Duo 2 Ghz
  • Memory: 4 GB RAM
  • Graphics: Geforce GTX 460 or equivalent
  • DirectX: Version 10
  • Hard Drive: 5 GB available space

RECOMMENDED:
  • OS: Windows 8
  • Processor: Intel Core i5 2.5 Ghz
  • Memory: 8 GB RAM
  • Graphics: Geforce GTX 660 or equivalent
  • DirectX: Version 10
  • Hard Drive: 5 GB available space

Corpse of Discovery Repack Free Download

Download Free Repack Games – RepackGames.Net

***************************************
Corpse of Discovery Repack
*********************************************************

Corpse of Discovery Highly Compressed

——————————————————————————-
General Information
——————————————————————————-

 

 

General

Complete name : Y:\Games\RepackGames.Net – Corpse of Discovery\Corpse of Discovery\steam_api.ini
File size : 2.37 KiB

 

 

 

General

Complete name : Y:\Games\RepackGames.Net – Corpse of Discovery\Corpse of Discovery\steam_api64.dll
Format : MZ
Format profile : DLL / AMD x86-64
File size : 1.57 MiB
Encoded date : UTC 2015-06-01 15:59:28

 

 

 

General

Complete name : Y:\Games\RepackGames.Net – Corpse of Discovery\Corpse of Discovery\unins000.dat
File size : 32.7 KiB

 

 

 

General

Complete name : Y:\Games\RepackGames.Net – Corpse of Discovery\Corpse of Discovery\unins000.exe
Format : MZ
Format profile : Executable / Intel i386
File size : 1.67 MiB
Encoded date : UTC 2013-10-13 08:19:33

 

 

 

General

Complete name : Y:\Games\RepackGames.Net – Corpse of Discovery\Corpse of Discovery\CorpseOfDiscovery_Data\level0
File size : 25.6 KiB

 

 

 

General

Complete name : Y:\Games\RepackGames.Net – Corpse of Discovery\Corpse of Discovery\CorpseOfDiscovery_Data\level1
File size : 618 KiB

 

 

 

General

Complete name : Y:\Games\RepackGames.Net – Corpse of Discovery\Corpse of Discovery\CorpseOfDiscovery_Data\level10
File size : 613 KiB

 

 

 

General

Complete name : Y:\Games\RepackGames.Net – Corpse of Discovery\Corpse of Discovery\CorpseOfDiscovery_Data\level11
File size : 852 KiB

 

 

 

General

Complete name : Y:\Games\RepackGames.Net – Corpse of Discovery\Corpse of Discovery\CorpseOfDiscovery_Data\level12
File size : 997 KiB

 

 

 

General

Complete name : Y:\Games\RepackGames.Net – Corpse of Discovery\Corpse of Discovery\CorpseOfDiscovery_Data\level13
File size : 235 KiB

 

 

 

General

Complete name : Y:\Games\RepackGames.Net – Corpse of Discovery\Corpse of Discovery\CorpseOfDiscovery_Data\level14
File size : 4.94 KiB

 

 

 

General

Complete name : Y:\Games\RepackGames.Net – Corpse of Discovery\Corpse of Discovery\CorpseOfDiscovery_Data\level2
File size : 337 KiB

 

 

 

General

Complete name : Y:\Games\RepackGames.Net – Corpse of Discovery\Corpse of Discovery\CorpseOfDiscovery_Data\level3
File size : 542 KiB

 

 

 

General

Complete name : Y:\Games\RepackGames.Net – Corpse of Discovery\Corpse of Discovery\CorpseOfDiscovery_Data\level4
File size : 473 KiB

 

 

 

General

Complete name : Y:\Games\RepackGames.Net – Corpse of Discovery\Corpse of Discovery\CorpseOfDiscovery_Data\level5
File size : 546 KiB

 

 

 

General

Complete name : Y:\Games\RepackGames.Net – Corpse of Discovery\Corpse of Discovery\CorpseOfDiscovery_Data\level6
File size : 593 KiB

 

 

 

General

Complete name : Y:\Games\RepackGames.Net – Corpse of Discovery\Corpse of Discovery\CorpseOfDiscovery_Data\level7
File size : 641 KiB

 

 

 

General

Complete name : Y:\Games\RepackGames.Net – Corpse of Discovery\Corpse of Discovery\CorpseOfDiscovery_Data\level8
File size : 641 KiB

 

 

 

General

Complete name : Y:\Games\RepackGames.Net – Corpse of Discovery\Corpse of Discovery\CorpseOfDiscovery_Data\level9
File size : 656 KiB

 

 

 

General

Complete name : Y:\Games\RepackGames.Net – Corpse of Discovery\Corpse of Discovery\CorpseOfDiscovery_Data\mainData
File size : 87.2 KiB

 

 

 

General

Complete name : Y:\Games\RepackGames.Net – Corpse of Discovery\Corpse of Discovery\CorpseOfDiscovery_Data\Managed\Assembly-CSharp-firstpass.dll
Format : MZ
Format profile : DLL / Intel i386
File size : 366 KiB
Encoded date : UTC 2015-08-26 00:16:37

 

 

 

General

Complete name : Y:\Games\RepackGames.Net – Corpse of Discovery\Corpse of Discovery\CorpseOfDiscovery_Data\Managed\Assembly-CSharp.dll
Format : MZ
Format profile : DLL / Intel i386
File size : 2.79 MiB
Encoded date : UTC 2015-08-26 00:16:44

 

 

 

General

Complete name : Y:\Games\RepackGames.Net – Corpse of Discovery\Corpse of Discovery\CorpseOfDiscovery_Data\Managed\Assembly-UnityScript-firstpass.dll
Format : MZ
Format profile : DLL / Intel i386
File size : 76.5 KiB
Encoded date : UTC 2015-08-26 00:16:37

 

 

 

General

Complete name : Y:\Games\RepackGames.Net – Corpse of Discovery\Corpse of Discovery\CorpseOfDiscovery_Data\Managed\Assembly-UnityScript.dll
Format : MZ
Format profile : DLL / Intel i386
File size : 175 KiB
Encoded date : UTC 2015-08-26 00:16:40

 

 

 

General

Complete name : Y:\Games\RepackGames.Net – Corpse of Discovery\Corpse of Discovery\CorpseOfDiscovery_Data\Managed\Boo.Lang.dll
Format : MZ
Format profile : DLL / Intel i386
File size : 124 KiB
Encoded date : UTC 2015-05-11 17:50:31

 

 

 

General

Complete name : Y:\Games\RepackGames.Net – Corpse of Discovery\Corpse of Discovery\CorpseOfDiscovery_Data\Managed\Gif2Textures.dll
Format : MZ
Format profile : DLL / Intel i386
File size : 11.0 KiB
Encoded date : UTC 2014-11-10 02:27:42

 

 

 

General

Complete name : Y:\Games\RepackGames.Net – Corpse of Discovery\Corpse of Discovery\CorpseOfDiscovery_Data\Managed\Mono.Posix.dll
Format : MZ
Format profile : DLL / Intel i386
File size : 180 KiB
Encoded date : UTC 2015-05-11 17:32:37

 

 

 

General

Complete name : Y:\Games\RepackGames.Net – Corpse of Discovery\Corpse of Discovery\CorpseOfDiscovery_Data\Managed\Mono.Security.dll
Format : MZ
Format profile : DLL / Intel i386
File size : 288 KiB
Encoded date : UTC 2015-05-11 17:32:46

 

 

 

General

Complete name : Y:\Games\RepackGames.Net – Corpse of Discovery\Corpse of Discovery\CorpseOfDiscovery_Data\Managed\mscorlib.dll
Format : MZ
Format profile : DLL / Intel i386
File size : 2.47 MiB
Encoded date : UTC 2015-05-11 17:32:10

 

 

 

General

Complete name : Y:\Games\RepackGames.Net – Corpse of Discovery\Corpse of Discovery\CorpseOfDiscovery_Data\Managed\PlayMaker.dll
Format : MZ
Format profile : DLL / Intel i386
File size : 153 KiB
Encoded date : UTC 2014-01-27 02:44:04

 

 

 

General

Complete name : Y:\Games\RepackGames.Net – Corpse of Discovery\Corpse of Discovery\CorpseOfDiscovery_Data\Managed\System.Configuration.dll
Format : MZ
Format profile : DLL / Intel i386
File size : 122 KiB
Encoded date : UTC 2015-05-11 17:33:02

 

 

 

General

Complete name : Y:\Games\RepackGames.Net – Corpse of Discovery\Corpse of Discovery\CorpseOfDiscovery_Data\Managed\System.Core.dll
Format : MZ
Format profile : DLL / Intel i386
File size : 293 KiB
Encoded date : UTC 2015-05-11 17:32:42

 

 

 

General

Complete name : Y:\Games\RepackGames.Net – Corpse of Discovery\Corpse of Discovery\CorpseOfDiscovery_Data\Managed\System.dll
Format : MZ
Format profile : DLL / Intel i386
File size : 1.60 MiB
Encoded date : UTC 2015-05-11 17:33:13

 

 

 

General

Complete name : Y:\Games\RepackGames.Net – Corpse of Discovery\Corpse of Discovery\CorpseOfDiscovery_Data\Managed\System.Security.dll
Format : MZ
Format profile : DLL / Intel i386
File size : 132 KiB
Encoded date : UTC 2015-05-11 17:32:59

 

 

 

General

Complete name : Y:\Games\RepackGames.Net – Corpse of Discovery\Corpse of Discovery\CorpseOfDiscovery_Data\Managed\System.Xml.dll
Format : MZ
Format profile : DLL / Intel i386
File size : 1.21 MiB
Encoded date : UTC 2015-05-11 17:32:29

 

 

 

General

Complete name : Y:\Games\RepackGames.Net – Corpse of Discovery\Corpse of Discovery\CorpseOfDiscovery_Data\Managed\UnityEngine.dll
Format : MZ
Format profile : DLL / Intel i386
File size : 599 KiB
Encoded date : UTC 2015-05-29 06:45:01

 

 

 

General

Complete name : Y:\Games\RepackGames.Net – Corpse of Discovery\Corpse of Discovery\CorpseOfDiscovery_Data\Managed\UnityEngine.UI.dll
Format : MZ
Format profile : DLL / Intel i386
File size : 172 KiB
Encoded date : UTC 2015-05-29 06:43:46

 

 

 

General

Complete name : Y:\Games\RepackGames.Net – Corpse of Discovery\Corpse of Discovery\CorpseOfDiscovery_Data\Managed\UnityScript.Lang.dll
Format : MZ
Format profile : DLL / Intel i386
File size : 14.0 KiB
Encoded date : UTC 2015-05-11 17:50:55

 

 

 

General

Complete name : Y:\Games\RepackGames.Net – Corpse of Discovery\Corpse of Discovery\CorpseOfDiscovery_Data\Managed\VacuumShaders.Fragmentum.dll
Format : MZ
Format profile : DLL / Intel i386
File size : 17.5 KiB
Encoded date : UTC 2015-03-18 10:58:36

 

 

 

General

Complete name : Y:\Games\RepackGames.Net – Corpse of Discovery\Corpse of Discovery\CorpseOfDiscovery_Data\Mono\etc\mono\1.0\DefaultWsdlHelpGenerator.aspx
File size : 56.8 KiB

 

 

 

General

Complete name : Y:\Games\RepackGames.Net – Corpse of Discovery\Corpse of Discovery\CorpseOfDiscovery_Data\Mono\etc\mono\1.0\machine.config
File size : 16.9 KiB

 

 

 

General

Complete name : Y:\Games\RepackGames.Net – Corpse of Discovery\Corpse of Discovery\CorpseOfDiscovery_Data\Mono\etc\mono\2.0\Browsers\Compat.browser
File size : 1.57 KiB

 

 

 

General

Complete name : Y:\Games\RepackGames.Net – Corpse of Discovery\Corpse of Discovery\CorpseOfDiscovery_Data\Mono\etc\mono\2.0\DefaultWsdlHelpGenerator.aspx
File size : 59.0 KiB

 

 

 

General

Complete name : Y:\Games\RepackGames.Net – Corpse of Discovery\Corpse of Discovery\CorpseOfDiscovery_Data\Mono\etc\mono\2.0\machine.config
File size : 27.0 KiB

 

 

 

General

Complete name : Y:\Games\RepackGames.Net – Corpse of Discovery\Corpse of Discovery\CorpseOfDiscovery_Data\Mono\etc\mono\2.0\settings.map
File size : 2.56 KiB

 

 

 

General

Complete name : Y:\Games\RepackGames.Net – Corpse of Discovery\Corpse of Discovery\CorpseOfDiscovery_Data\Mono\etc\mono\2.0\web.config
File size : 11.4 KiB

 

 

 

General

Complete name : Y:\Games\RepackGames.Net – Corpse of Discovery\Corpse of Discovery\CorpseOfDiscovery_Data\Mono\etc\mono\browscap.ini
File size : 305 KiB

 

 

 

General

Complete name : Y:\Games\RepackGames.Net – Corpse of Discovery\Corpse of Discovery\CorpseOfDiscovery_Data\Mono\etc\mono\config
File size : 1.65 KiB

 

 

 

General

Complete name : Y:\Games\RepackGames.Net – Corpse of Discovery\Corpse of Discovery\CorpseOfDiscovery_Data\Mono\etc\mono\mconfig\config.xml
File size : 25.2 KiB

 

 

 

General

Complete name : Y:\Games\RepackGames.Net – Corpse of Discovery\Corpse of Discovery\CorpseOfDiscovery_Data\Mono\mono.dll
Format : MZ
Format profile : DLL / AMD x86-64
File size : 2.48 MiB
Encoded date : UTC 2015-05-11 17:25:15

 

 

 

General

Complete name : Y:\Games\RepackGames.Net – Corpse of Discovery\Corpse of Discovery\CorpseOfDiscovery_Data\output_log.txt
File size : 52.3 KiB

 

 

 

General

Complete name : Y:\Games\RepackGames.Net – Corpse of Discovery\Corpse of Discovery\CorpseOfDiscovery_Data\Plugins\CSteamworks.dll
Format : MZ
Format profile : DLL / AMD x86-64
File size : 119 KiB
Encoded date : UTC 2014-05-28 05:21:40

 

 

 

General

Complete name : Y:\Games\RepackGames.Net – Corpse of Discovery\Corpse of Discovery\CorpseOfDiscovery_Data\Plugins\OculusPlugin.dll
Format : MZ
Format profile : DLL / AMD x86-64
File size : 486 KiB
Encoded date : UTC 2014-04-11 08:02:22

 

 

 

General

Complete name : Y:\Games\RepackGames.Net – Corpse of Discovery\Corpse of Discovery\CorpseOfDiscovery_Data\Resources\unity default resources
File size : 1.50 MiB

 

 

 

General

Complete name : Y:\Games\RepackGames.Net – Corpse of Discovery\Corpse of Discovery\CorpseOfDiscovery_Data\Resources\unity_builtin_extra
File size : 364 KiB

 

 

 

General

Complete name : Y:\Games\RepackGames.Net – Corpse of Discovery\Corpse of Discovery\CorpseOfDiscovery_Data\resources.assets
File size : 652 MiB

 

 

 

General

Complete name : Y:\Games\RepackGames.Net – Corpse of Discovery\Corpse of Discovery\CorpseOfDiscovery_Data\resources.assets.resS
Format : Wave / Wave / Wave / Wave / Wave / Wave
File size : 547 MiB
Duration : 12s 527ms
Overall bit rate : 367 Mbps
Genre : Blues
Recorded date : 2014-05-14T19:18:35-05:00 / 2014-05-14T19:18:35-05:00
Encoded date : 2015-08-19 03:19:21 / 2015-08-20 00:59:13
Writing application : Adobe Audition CC (Windows) / Adobe Audition CC (Windows)

 

Audio #1

Format : PCM
Codec ID : 1
Duration : 12s 527ms
Bit rate : 458 Kbps
Channel(s) : 2 channels
Sampling rate : 44.1 KHz
Bit depth : 16 bits
Stream size : 2.11 MiB (0%)

 

Audio #2

Format : PCM
Format profile : Float
Codec ID : 3
Codec ID/Hint : IEEE
Duration : 12s 527ms
Bit rate : 3 072 Kbps
Channel(s) : 2 channels
Sampling rate : 48.0 KHz
Bit depth : 32 bits
Stream size : 4.59 MiB (1%)

 

Audio #3

Format : PCM
Format profile : Float
Codec ID : 3
Codec ID/Hint : IEEE
Duration : 12s 527ms
Bit rate : 3 072 Kbps
Channel(s) : 2 channels
Sampling rate : 48.0 KHz
Bit depth : 32 bits
Stream size : 4.59 MiB (1%)

 

Audio #4

Format : PCM
Codec ID : 1
Duration : 12s 527ms
Bit rate : 1 411.2 Kbps
Channel(s) : 2 channels
Sampling rate : 44.1 KHz
Bit depth : 16 bits
Stream size : 2.11 MiB (0%)

 

Audio #5

Format : PCM
Codec ID : 1
Duration : 12s 527ms
Bit rate : 1 411.2 Kbps
Channel(s) : 2 channels
Sampling rate : 44.1 KHz
Bit depth : 16 bits
Stream size : 2.11 MiB (0%)

 

Audio #6

Format : PCM
Format settings, Endianness : Little
Format settings, Sign : Signed
Codec ID : 1
Duration : 12s 527ms
Bit rate mode : Constant
Bit rate : 1 411.2 Kbps
Channel(s) : 2 channels
Sampling rate : 44.1 KHz
Bit depth : 16 bits
Stream size : 2.11 MiB (0%)

 

 

 

General

Complete name : Y:\Games\RepackGames.Net – Corpse of Discovery\Corpse of Discovery\CorpseOfDiscovery_Data\sharedassets0.assets
File size : 6.67 MiB

 

 

 

General

Complete name : Y:\Games\RepackGames.Net – Corpse of Discovery\Corpse of Discovery\CorpseOfDiscovery_Data\sharedassets1.assets
Format : MPEG Audio
File size : 11.9 MiB
Duration : 52mn 2s
Overall bit rate mode : Constant
Overall bit rate : 32.0 Kbps

 

Audio

Format : MPEG Audio
Format version : Version 1
Format profile : Layer 1
Mode extension : Intensity Stereo + MS Stereo
Emphasis : CCITT
Duration : 52mn 2s
Bit rate mode : Constant
Bit rate : 32.0 Kbps
Channel(s) : 1 channel
Sampling rate : 48.0 KHz
Compression mode : Lossy
Stream size : 11.9 MiB (100%)

 

 

 

General

Complete name : Y:\Games\RepackGames.Net – Corpse of Discovery\Corpse of Discovery\CorpseOfDiscovery_Data\sharedassets1.assets.resS
Format : OGG
File size : 3.14 MiB
Duration : 2mn 10s
Overall bit rate mode : Variable
Overall bit rate : 202 Kbps
Writing application : libsndfile

 

Audio

ID : 3278916436 (0xC3704B54)
Format : Vorbis
Format settings, Floor : 1
Duration : 2mn 10s
Bit rate mode : Variable
Bit rate : 500 Kbps
Channel(s) : 2 channels
Sampling rate : 44.1 KHz
Compression mode : Lossy
Stream size : 7.79 MiB
Writing library : libVorbis (Schaufenugget) (20101101 (Schaufenugget))

 

 

 

General

Complete name : Y:\Games\RepackGames.Net – Corpse of Discovery\Corpse of Discovery\CorpseOfDiscovery_Data\sharedassets10.assets
File size : 30.7 MiB

 

 

 

General

Complete name : Y:\Games\RepackGames.Net – Corpse of Discovery\Corpse of Discovery\CorpseOfDiscovery_Data\sharedassets10.assets.resS
Format : OGG
File size : 1.50 MiB
Duration : 39s 206ms
Overall bit rate mode : Variable
Overall bit rate : 322 Kbps
Writing application : libsndfile

 

Audio

ID : 2968855820 (0xB0F5250C)
Format : Vorbis
Format settings, Floor : 1
Duration : 39s 206ms
Bit rate mode : Variable
Bit rate : 500 Kbps
Channel(s) : 2 channels
Sampling rate : 48.0 KHz
Compression mode : Lossy
Stream size : 2.34 MiB
Writing library : libVorbis (Schaufenugget) (20101101 (Schaufenugget))

 

 

 

General

Complete name : Y:\Games\RepackGames.Net – Corpse of Discovery\Corpse of Discovery\CorpseOfDiscovery_Data\sharedassets11.assets
File size : 192 MiB

 

 

 

General

Complete name : Y:\Games\RepackGames.Net – Corpse of Discovery\Corpse of Discovery\CorpseOfDiscovery_Data\sharedassets11.assets.resS
Format : OGG
File size : 38.9 MiB
Overall bit rate mode : Variable
Writing application : libsndfile

 

Audio

ID : 1587394164 (0x5E9DB674)
Format : Vorbis
Format settings, Floor : 1
Bit rate mode : Variable
Bit rate : 500 Kbps
Channel(s) : 2 channels
Sampling rate : 44.1 KHz
Compression mode : Lossy
Writing library : libVorbis (Schaufenugget) (20101101 (Schaufenugget))

 

 

 

General

Complete name : Y:\Games\RepackGames.Net – Corpse of Discovery\Corpse of Discovery\CorpseOfDiscovery_Data\sharedassets12.assets
File size : 26.0 MiB

 

 

 

General

Complete name : Y:\Games\RepackGames.Net – Corpse of Discovery\Corpse of Discovery\CorpseOfDiscovery_Data\sharedassets12.assets.resS
Format : Wave
File size : 20.2 MiB
Duration : 40s 964ms
Overall bit rate mode : Constant
Overall bit rate : 4 146 Kbps
Recorded date : 2014-05-14T19:18:35-05:00
Encoded date : 2014-05-15 00:57:09
Writing application : Adobe Audition CC (Windows)

 

Audio

Format : PCM
Format profile : Float
Codec ID : 3
Codec ID/Hint : IEEE
Duration : 40s 964ms
Bit rate mode : Constant
Bit rate : 3 072 Kbps
Channel(s) : 2 channels
Sampling rate : 48.0 KHz
Bit depth : 32 bits
Stream size : 15.0 MiB (74%)

 

 

 

General

Complete name : Y:\Games\RepackGames.Net – Corpse of Discovery\Corpse of Discovery\CorpseOfDiscovery_Data\sharedassets13.assets
File size : 300 MiB

 

 

 

General

Complete name : Y:\Games\RepackGames.Net – Corpse of Discovery\Corpse of Discovery\CorpseOfDiscovery_Data\sharedassets13.assets.resS
Format : OGG
File size : 47.7 MiB
Overall bit rate mode : Variable
Writing application : libsndfile

 

Audio

ID : 2745936868 (0xA3ABABE4)
Format : Vorbis
Format settings, Floor : 1
Bit rate mode : Variable
Bit rate : 500 Kbps
Channel(s) : 2 channels
Sampling rate : 44.1 KHz
Compression mode : Lossy
Writing library : libVorbis (Schaufenugget) (20101101 (Schaufenugget))

 

 

 

General

Complete name : Y:\Games\RepackGames.Net – Corpse of Discovery\Corpse of Discovery\CorpseOfDiscovery_Data\sharedassets14.assets
File size : 2.70 MiB

 

 

 

General

Complete name : Y:\Games\RepackGames.Net – Corpse of Discovery\Corpse of Discovery\CorpseOfDiscovery_Data\sharedassets14.assets.resS
Format : Wave
File size : 57.7 MiB
Duration : 2mn 16s
Overall bit rate mode : Constant
Overall bit rate : 3 553 Kbps
Recorded date : 2015-08-19T00:03:32-05:00
Encoded date : 2015-08-19 00:09:17
Writing application : Adobe Audition CC (Windows)

 

Audio

Format : PCM
Format profile : Float
Codec ID : 3
Codec ID/Hint : IEEE
Duration : 2mn 16s
Bit rate mode : Constant
Bit rate : 2 822 Kbps
Channel(s) : 2 channels
Sampling rate : 44.1 KHz
Bit depth : 32 bits
Stream size : 45.8 MiB (79%)

 

 

 

General

Complete name : Y:\Games\RepackGames.Net – Corpse of Discovery\Corpse of Discovery\CorpseOfDiscovery_Data\sharedassets15.assets
Format : OGG
File size : 33.0 MiB
Duration : 1mn 7s
Overall bit rate mode : Variable
Overall bit rate : 4 092 Kbps
DURATION : 67.67

 

Video

ID : 1 (0x1)
Format : Theora
Duration : 1mn 7s
Bit rate : 3 765 Kbps
Nominal bit rate : 4 100 Kbps
Width : 1 280 pixels
Height : 720 pixels
Display aspect ratio : 16:9
Frame rate : 24.000 fps
Compression mode : Lossy
Bits/(Pixel*Frame) : 0.170
Stream size : 30.4 MiB (92%)
Writing library : libTheora 3.2.1 (UTC 2008-10-20)

 

Audio

ID : 2 (0x2)
Format : Vorbis
Format settings, Floor : 1
Duration : 1mn 7s
Bit rate mode : Variable
Bit rate : 156 Kbps
Channel(s) : 2 channels
Sampling rate : 48.0 KHz
Compression mode : Lossy
Stream size : 1.26 MiB (4%)
Writing library : libVorbis (Schaufenugget) (20101101 (Schaufenugget))

 

 

 

General

Complete name : Y:\Games\RepackGames.Net – Corpse of Discovery\Corpse of Discovery\CorpseOfDiscovery_Data\sharedassets2.assets
File size : 599 MiB

 

 

 

General

Complete name : Y:\Games\RepackGames.Net – Corpse of Discovery\Corpse of Discovery\CorpseOfDiscovery_Data\sharedassets2.assets.resS
Format : Wave
File size : 30.8 MiB
Duration : 1s 803ms
Overall bit rate mode : Constant
Overall bit rate : 143 Mbps
Producer : Pro Tools
Encoded date : 2014-05-01 18:16:40
Producer_Reference : DtZiz!mIm#faaaGk

 

Audio

Format : PCM
Format settings, Endianness : Little
Format settings, Sign : Signed
Codec ID : 1
Duration : 1s 803ms
Bit rate mode : Constant
Bit rate : 705.6 Kbps
Channel(s) : 1 channel
Sampling rate : 44.1 KHz
Bit depth : 16 bits
Stream size : 155 KiB (0%)

 

 

 

General

Complete name : Y:\Games\RepackGames.Net – Corpse of Discovery\Corpse of Discovery\CorpseOfDiscovery_Data\sharedassets3.assets
File size : 322 MiB

 

 

 

General

Complete name : Y:\Games\RepackGames.Net – Corpse of Discovery\Corpse of Discovery\CorpseOfDiscovery_Data\sharedassets3.assets.resS
Format : OGG
File size : 80.1 MiB
Overall bit rate mode : Variable
Writing application : libsndfile

 

Audio

ID : 1247645716 (0x4A5D9014)
Format : Vorbis
Format settings, Floor : 1
Bit rate mode : Variable
Bit rate : 500 Kbps
Channel(s) : 2 channels
Sampling rate : 44.1 KHz
Compression mode : Lossy
Writing library : libVorbis (Schaufenugget) (20101101 (Schaufenugget))

 

 

 

General

Complete name : Y:\Games\RepackGames.Net – Corpse of Discovery\Corpse of Discovery\CorpseOfDiscovery_Data\sharedassets4.assets
File size : 83.5 MiB

 

 

 

General

Complete name : Y:\Games\RepackGames.Net – Corpse of Discovery\Corpse of Discovery\CorpseOfDiscovery_Data\sharedassets4.assets.resS
Format : OGG
File size : 1.69 MiB
Duration : 40s 200ms
Overall bit rate mode : Variable
Overall bit rate : 353 Kbps
Writing application : libsndfile

 

Audio

ID : 188922548 (0xB42BAB4)
Format : Vorbis
Format settings, Floor : 1
Duration : 40s 200ms
Bit rate mode : Variable
Bit rate : 500 Kbps
Channel(s) : 2 channels
Sampling rate : 48.0 KHz
Compression mode : Lossy
Stream size : 2.40 MiB
Writing library : libVorbis (Schaufenugget) (20101101 (Schaufenugget))

 

 

 

General

Complete name : Y:\Games\RepackGames.Net – Corpse of Discovery\Corpse of Discovery\CorpseOfDiscovery_Data\sharedassets5.assets
File size : 310 MiB

 

 

 

General

Complete name : Y:\Games\RepackGames.Net – Corpse of Discovery\Corpse of Discovery\CorpseOfDiscovery_Data\sharedassets5.assets.resS
Format : Wave
File size : 39.0 MiB
Duration : 1mn 0s
Overall bit rate mode : Constant
Overall bit rate : 5 452 Kbps

 

Audio

Format : PCM
Format profile : Float
Codec ID : 3
Codec ID/Hint : IEEE
Duration : 1mn 0s
Bit rate mode : Constant
Bit rate : 2 822 Kbps
Channel(s) : 2 channels
Sampling rate : 44.1 KHz
Bit depth : 32 bits
Stream size : 20.2 MiB (52%)

 

 

 

General

Complete name : Y:\Games\RepackGames.Net – Corpse of Discovery\Corpse of Discovery\CorpseOfDiscovery_Data\sharedassets6.assets
File size : 41.4 MiB

 

 

 

General

Complete name : Y:\Games\RepackGames.Net – Corpse of Discovery\Corpse of Discovery\CorpseOfDiscovery_Data\sharedassets6.assets.resS
Format : OGG
File size : 2.86 MiB
Duration : 1mn 1s
Overall bit rate mode : Variable
Overall bit rate : 389 Kbps
Writing application : libsndfile

 

Audio

ID : 4283933692 (0xFF57A3FC)
Format : Vorbis
Format settings, Floor : 1
Duration : 1mn 1s
Bit rate mode : Variable
Bit rate : 500 Kbps
Channel(s) : 2 channels
Sampling rate : 48.0 KHz
Compression mode : Lossy
Stream size : 3.67 MiB
Writing library : libVorbis (Schaufenugget) (20101101 (Schaufenugget))

 

 

 

General

Complete name : Y:\Games\RepackGames.Net – Corpse of Discovery\Corpse of Discovery\CorpseOfDiscovery_Data\sharedassets7.assets
File size : 190 MiB

 

 

 

General

Complete name : Y:\Games\RepackGames.Net – Corpse of Discovery\Corpse of Discovery\CorpseOfDiscovery_Data\sharedassets7.assets.resS
Format : OGG
File size : 26.4 MiB
Overall bit rate mode : Variable
Writing application : libsndfile

 

Audio

ID : 1450676692 (0x567791D4)
Format : Vorbis
Format settings, Floor : 1
Bit rate mode : Variable
Bit rate : 500 Kbps
Channel(s) : 2 channels
Sampling rate : 44.1 KHz
Compression mode : Lossy
Writing library : libVorbis (Schaufenugget) (20101101 (Schaufenugget))

 

 

 

General

Complete name : Y:\Games\RepackGames.Net – Corpse of Discovery\Corpse of Discovery\CorpseOfDiscovery_Data\sharedassets8.assets
File size : 61.5 MiB

 

 

 

General

Complete name : Y:\Games\RepackGames.Net – Corpse of Discovery\Corpse of Discovery\CorpseOfDiscovery_Data\sharedassets8.assets.resS
Format : OGG
File size : 2.74 MiB
Duration : 59s 459ms
Overall bit rate mode : Variable
Overall bit rate : 386 Kbps
Writing application : libsndfile

 

Audio

ID : 1808192620 (0x6BC6D46C)
Format : Vorbis
Format settings, Floor : 1
Duration : 59s 459ms
Bit rate mode : Variable
Bit rate : 500 Kbps
Channel(s) : 2 channels
Sampling rate : 48.0 KHz
Compression mode : Lossy
Stream size : 3.54 MiB
Writing library : libVorbis (Schaufenugget) (20101101 (Schaufenugget))

 

 

 

General

Complete name : Y:\Games\RepackGames.Net – Corpse of Discovery\Corpse of Discovery\CorpseOfDiscovery_Data\sharedassets9.assets
File size : 425 MiB

 

 

 

General

Complete name : Y:\Games\RepackGames.Net – Corpse of Discovery\Corpse of Discovery\CorpseOfDiscovery_Data\sharedassets9.assets.resS
Format : Wave
File size : 90.7 MiB
Duration : 51s 577ms
Overall bit rate mode : Constant
Overall bit rate : 14.7 Mbps
Recorded date : 2014-05-14T19:18:35-05:00
Encoded date : 2014-05-15 01:59:35
Writing application : Adobe Audition CC (Windows)

 

Audio

Format : PCM
Format profile : Float
Codec ID : 3
Codec ID/Hint : IEEE
Duration : 51s 577ms
Bit rate mode : Constant
Bit rate : 3 072 Kbps
Channel(s) : 2 channels
Sampling rate : 48.0 KHz
Bit depth : 32 bits
Stream size : 18.9 MiB (21%)

 

 

 

General

Complete name : Y:\Games\RepackGames.Net – Corpse of Discovery\Corpse of Discovery\CorpseOfDiscovery_Data\StreamingAssets\CoD_Movie_Test01.mp4
Format : MPEG-4
Format profile : Base Media / Version 2
Codec ID : mp42
File size : 11.8 MiB
Duration : 1mn 26s
Overall bit rate mode : Variable
Overall bit rate : 1 144 Kbps
Encoded date : UTC 2015-06-12 17:51:52
Tagged date : UTC 2015-06-12 17:51:53
©TIM : 0
©TSC : 15
©TSZ : 1

 

Video

ID : 1
Format : AVC
Format/Info : Advanced Video Codec
Format profile : [email protected]
Format settings, CABAC : Yes
Format settings, ReFrames : 3 frames
Codec ID : avc1
Codec ID/Info : Advanced Video Coding
Duration : 1mn 26s
Bit rate mode : Variable
Bit rate : 1 032 Kbps
Maximum bit rate : 2 000 Kbps
Width : 480 pixels
Height : 272 pixels
Display aspect ratio : 16:9
Frame rate mode : Variable
Frame rate : 15.000 fps
Minimum frame rate : 15.000 fps
Maximum frame rate : 15.008 fps
Standard : NTSC
Color space : YUV
Chroma subsampling : 4:2:0
Bit depth : 8 bits
Scan type : Interlaced
Scan order : Bottom Field First
Bits/(Pixel*Frame) : 0.527
Stream size : 10.6 MiB (90%)
Language : English
Encoded date : UTC 2015-06-12 17:51:52
Tagged date : UTC 2015-06-12 17:51:52
Color range : Limited

 

Audio

ID : 2
Format : AAC
Format/Info : Advanced Audio Codec
Format profile : LC
Codec ID : 40
Duration : 1mn 26s
Source duration : 1mn 26s
Bit rate mode : Variable
Bit rate : 96.0 Kbps
Maximum bit rate : 121 Kbps
Channel(s) : 1 channel
Channel positions : Front: C
Sampling rate : 32.0 KHz
Compression mode : Lossy
Stream size : 994 KiB (8%)
Source stream size : 995 KiB (8%)
Language : English
Encoded date : UTC 2015-06-12 17:51:52
Tagged date : UTC 2015-06-12 17:51:52

 

 

 

General

Complete name : Y:\Games\RepackGames.Net – Corpse of Discovery\Corpse of Discovery\CorpseOfDiscovery_Data\StreamingAssets\snapfire_v4.mp4
Format : MPEG-4
Codec ID : M4V
File size : 7.64 MiB
Duration : 1mn 10s
Overall bit rate mode : Variable
Overall bit rate : 907 Kbps
Encoded date : UTC 2013-04-24 19:02:29
Tagged date : UTC 2013-04-24 19:02:29
©TIM : 00:00:00:00
©TSC : 30000
©TSZ : 1001

 

Video

ID : 1
Format : AVC
Format/Info : Advanced Video Codec
Format profile : [email protected]
Format settings, CABAC : No
Format settings, ReFrames : 2 frames
Format settings, GOP : M=1, N=90
Codec ID : avc1
Codec ID/Info : Advanced Video Coding
Duration : 1mn 10s
Source duration : 1mn 10s
Bit rate : 745 Kbps
Width : 640 pixels
Height : 480 pixels
Display aspect ratio : 4:3
Frame rate mode : Variable
Frame rate : 29.970 fps
Minimum frame rate : 29.970 fps
Maximum frame rate : 30.000 fps
Standard : NTSC
Color space : YUV
Chroma subsampling : 4:2:0
Bit depth : 8 bits
Scan type : Progressive
Bits/(Pixel*Frame) : 0.081
Stream size : 6.27 MiB (82%)
Source stream size : 6.27 MiB (82%)
Language : English
Encoded date : UTC 2013-04-24 19:02:29
Tagged date : UTC 2013-04-24 19:02:29
Color range : Limited
mdhd_Duration : 70671

 

Audio

ID : 2
Format : AAC
Format/Info : Advanced Audio Codec
Format profile : LC
Codec ID : 40
Duration : 1mn 10s
Source duration : 1mn 10s
Bit rate mode : Variable
Bit rate : 157 Kbps
Maximum bit rate : 224 Kbps
Channel(s) : 2 channels
Channel positions : Front: L R
Sampling rate : 48.0 KHz
Compression mode : Lossy
Stream size : 1.33 MiB (17%)
Source stream size : 1.33 MiB (17%)
Language : English
Encoded date : UTC 2013-04-24 19:02:29
Tagged date : UTC 2013-04-24 19:02:29
mdhd_Duration : 70741

 

 

 

General

Complete name : Y:\Games\RepackGames.Net – Corpse of Discovery\Corpse of Discovery\CorpseOfDiscovery.exe
Format : MZ
Format profile : Executable / AMD x86-64
File size : 14.7 MiB
Encoded date : UTC 2015-05-29 06:47:16

 

 

 

General

Complete name : Y:\Games\RepackGames.Net – Corpse of Discovery\Corpse of Discovery\doge.w0w
Format : MZ
Format profile : DLL / AMD x86-64
File size : 117 KiB
Encoded date : UTC 2014-04-21 23:21:31

 

 

Corpse of Discovery Small Size

——————————————————————————-
Post Information
——————————————————————————-
Posted by…………: RepackGames.Net
Fills Policy………: Ask for them nicely
Repost Policy……..: 5 days after original post

——————————————————————————-

Corpse of Discovery PC Game Cracked

——————————————————————————-
Release Notes
——————————————————————————-

Visit www.RepackGames.Net to get latest repack (highly compressed) PC games for free.

——————————————————————————-

Corpse of Discovery Repack Free Download

Here are quick steps how to installing Corpse of Discovery Repack PC Game, make sure you follow the steps that we have given below correctly.

How to Install
  1. Unrar with latest winRAR version.
  2. Run “setup.exe”.
  3. Run the game from shortcut in “start” menu or dekstop shortcut.
  4. Support the software developers. If you like this game, please buy it! Thank you very much.

Note
  1. Block the game’s exe in your firewall to prevent the game from trying to go online.
  2. If you install games to your systemdrive, it may be necessary to run this game with admin privileges instead.

Corpse of Discovery Repack Free Download

Download Corpse of Discovery Repack from this website. RepackGames.Net offering this latest repack game for free. Get working repack game without bugs and error. We had posted direct download links to download this game for PC (Personal Computer) without cost (100% free). The latest and updated game by the publishers are given here. Download Corpse of Discovery Repack in highly compressed form without viruses. This game have been repacked by trusted group. Download complete game (include crack, update, hotfix, etc) from here. RepackGames.Net also provides crack-patch of this game. In this post, we also insert the trailer of the game, so before downloading this game please take your time first to watch the trailer that already we served, click on Trailer tab above. Please install it using recommended settings. Enjoy playing this amazing game for free on your PC. Share with friends. Thanks for having look over our work! Please note that this game is hosted on a third-party file sharing website, and it is not affiliated with RepackGames.Net.

DOWNLOAD

Tags: #Corpse of Discovery #Corpse of Discovery Repack Free Download #Highly Compressed #Repack