Conquest of Elysium 4 Repack Free Download

By | November 17, 2015

Conquest of Elysium 4 Repack Free Download

Conquest of Elysium 4 Repack Free Download

AboutFeaturesScreenshotsTrailerSystem Requirements.NFO

Basic Information

Conquest of Elysium 4 Repack Free Download PC Game setup for Windows operating system (OS). Conquest of Elysium 4 Repack is a Indie, Strategy game. Conquest of Elysium 4 Repack is a PC game that developed and published by Indie, Strategy. Conquest of Elysium 4 Repack game was released on 16, November 2015. The size of this game is 351 MB (368,543,977 bytes). It was released for all platforms, but we are only offering this game to play only on PC/Windows. It supports single player mode only.

You may also like Game Name Repack.

Description

Conquest of Elysium 4 is a quick turn based fantasy strategy game with a touch of rogue-like. The game might appear simple at first, but it is full of depth, details and of course monsters.

The main focus in CoE4 is that each race plays differently. We’re not talking about a unique building and unique unit, we’re talking about completely differently, with different mechanics and different goals. Perhaps you’re playing a druid, focused on amassing a vast forest and jungle empire from which to harvest ingredients to summon creatures of the woods with no practical need to conquer mines. Perhaps you’re a dwarf, who’s only concern are mines and produce units at a set rate every turn, focused almost entirely on upgrading those units to survive as long as possible since they are so difficult to replace. With 20 different factions that alone is enough to keep your play dynamic as you vie for control of the map to conquer Elysium.

Repack Features:
  • Based on HI2U release.
  • MD5 Perfect: all files are identical to originals after installation.
  • Version of the game v1.0.0.0.
  • NOTHING ripped, NOTHING re-encoded, only repack.
  • Significantly smaller archive size.
  • Installation takes 3-4 minutes (depending on your PC performance).
  • Work perfectly.
  • Repack by RepackGames.Net.

Snapshot of Conquest of Elysium 4 Repack

Image of Conquest of Elysium 4 Repack

This game system requirements are described in the content below. With these specifications, the game will run smoothly and graphics would be crystal clear. A machine (CPU) better than these specifications is most beneficiary.

MINIMUM:
  • OS: XP, Vista, win 8 or later
  • Processor: 1 GHz
  • Memory: 1 GB RAM
  • Graphics: OpenGL
  • Hard Drive: 1 GB available space

Conquest of Elysium 4 Repack Free Download

Download Free Repack Games – RepackGames.Net

***************************************
Conquest of Elysium 4 Repack
*********************************************************

Conquest of Elysium 4 Highly Compressed

——————————————————————————-
General Information
——————————————————————————-

 

 

General

Complete name : R:\GAMES\RepackGames.Net – Conquest of Elysium 4\Conquest of Elysium 4\New folder\libfreetype-6.dll
Format : MZ
Format profile : DLL / Intel i386
File size : 451 KiB
Encoded date : UTC 2012-01-03 03:26:30

 

 

 

General

Complete name : R:\GAMES\RepackGames.Net – Conquest of Elysium 4\Conquest of Elysium 4\New folder\sdl.dll
Format : MZ
Format profile : DLL / Intel i386
File size : 297 KiB
Encoded date : UTC 2012-01-15 16:39:02

 

 

 

General

Complete name : R:\GAMES\RepackGames.Net – Conquest of Elysium 4\Conquest of Elysium 4\New folder\sdl_ttf.dll
Format : MZ
Format profile : DLL / Intel i386
File size : 26.5 KiB
Encoded date : UTC 2012-01-15 16:39:02

 

 

 

General

Complete name : R:\GAMES\RepackGames.Net – Conquest of Elysium 4\Conquest of Elysium 4\New folder\unins000.dat
File size : 37.8 KiB

 

 

 

General

Complete name : R:\GAMES\RepackGames.Net – Conquest of Elysium 4\Conquest of Elysium 4\New folder\unins000.exe
Format : MZ
Format profile : Executable / Intel i386
File size : 1.20 MiB
Encoded date : UTC 2013-10-13 08:19:33

 

 

 

General

Complete name : R:\GAMES\RepackGames.Net – Conquest of Elysium 4\Conquest of Elysium 4\New folder\zlib1.dll
Format : MZ
Format profile : DLL / Intel i386
File size : 58.5 KiB
Encoded date : UTC 2005-07-20 09:48:10

 

 

 

General

Complete name : R:\GAMES\RepackGames.Net – Conquest of Elysium 4\Conquest of Elysium 4\New folder\coe4.app\Contents\Frameworks\SDL.framework\Headers\begin_code.h
File size : 4.23 KiB

 

 

 

General

Complete name : R:\GAMES\RepackGames.Net – Conquest of Elysium 4\Conquest of Elysium 4\New folder\coe4.app\Contents\Frameworks\SDL.framework\Headers\close_code.h
File size : 1.39 KiB

 

 

 

General

Complete name : R:\GAMES\RepackGames.Net – Conquest of Elysium 4\Conquest of Elysium 4\New folder\coe4.app\Contents\Frameworks\SDL.framework\Headers\SDL.h
File size : 3.06 KiB

 

 

 

General

Complete name : R:\GAMES\RepackGames.Net – Conquest of Elysium 4\Conquest of Elysium 4\New folder\coe4.app\Contents\Frameworks\SDL.framework\Headers\SDL_active.h
File size : 1.83 KiB

 

 

 

General

Complete name : R:\GAMES\RepackGames.Net – Conquest of Elysium 4\Conquest of Elysium 4\New folder\coe4.app\Contents\Frameworks\SDL.framework\Headers\SDL_audio.h
File size : 10.6 KiB

 

 

 

General

Complete name : R:\GAMES\RepackGames.Net – Conquest of Elysium 4\Conquest of Elysium 4\New folder\coe4.app\Contents\Frameworks\SDL.framework\Headers\SDL_byteorder.h
File size : 910 Bytes

 

 

 

General

Complete name : R:\GAMES\RepackGames.Net – Conquest of Elysium 4\Conquest of Elysium 4\New folder\coe4.app\Contents\Frameworks\SDL.framework\Headers\SDL_cdrom.h
File size : 5.52 KiB

 

 

 

General

Complete name : R:\GAMES\RepackGames.Net – Conquest of Elysium 4\Conquest of Elysium 4\New folder\coe4.app\Contents\Frameworks\SDL.framework\Headers\SDL_config.h
File size : 1.44 KiB

 

 

 

General

Complete name : R:\GAMES\RepackGames.Net – Conquest of Elysium 4\Conquest of Elysium 4\New folder\coe4.app\Contents\Frameworks\SDL.framework\Headers\SDL_config_dreamcast.h
File size : 2.74 KiB

 

 

 

General

Complete name : R:\GAMES\RepackGames.Net – Conquest of Elysium 4\Conquest of Elysium 4\New folder\coe4.app\Contents\Frameworks\SDL.framework\Headers\SDL_config_macos.h
File size : 2.74 KiB

 

 

 

General

Complete name : R:\GAMES\RepackGames.Net – Conquest of Elysium 4\Conquest of Elysium 4\New folder\coe4.app\Contents\Frameworks\SDL.framework\Headers\SDL_config_macosx.h
File size : 3.45 KiB

 

 

 

General

Complete name : R:\GAMES\RepackGames.Net – Conquest of Elysium 4\Conquest of Elysium 4\New folder\coe4.app\Contents\Frameworks\SDL.framework\Headers\SDL_config_os2.h
File size : 3.55 KiB

 

 

 

General

Complete name : R:\GAMES\RepackGames.Net – Conquest of Elysium 4\Conquest of Elysium 4\New folder\coe4.app\Contents\Frameworks\SDL.framework\Headers\SDL_config_win32.h
File size : 4.40 KiB

 

 

 

General

Complete name : R:\GAMES\RepackGames.Net – Conquest of Elysium 4\Conquest of Elysium 4\New folder\coe4.app\Contents\Frameworks\SDL.framework\Headers\SDL_copying.h
File size : 869 Bytes

 

 

 

General

Complete name : R:\GAMES\RepackGames.Net – Conquest of Elysium 4\Conquest of Elysium 4\New folder\coe4.app\Contents\Frameworks\SDL.framework\Headers\SDL_cpuinfo.h
File size : 2.25 KiB

 

 

 

General

Complete name : R:\GAMES\RepackGames.Net – Conquest of Elysium 4\Conquest of Elysium 4\New folder\coe4.app\Contents\Frameworks\SDL.framework\Headers\SDL_endian.h
File size : 5.52 KiB

 

 

 

General

Complete name : R:\GAMES\RepackGames.Net – Conquest of Elysium 4\Conquest of Elysium 4\New folder\coe4.app\Contents\Frameworks\SDL.framework\Headers\SDL_error.h
File size : 1.72 KiB

 

 

 

General

Complete name : R:\GAMES\RepackGames.Net – Conquest of Elysium 4\Conquest of Elysium 4\New folder\coe4.app\Contents\Frameworks\SDL.framework\Headers\SDL_events.h
File size : 12.3 KiB

 

 

 

General

Complete name : R:\GAMES\RepackGames.Net – Conquest of Elysium 4\Conquest of Elysium 4\New folder\coe4.app\Contents\Frameworks\SDL.framework\Headers\SDL_getenv.h
File size : 910 Bytes

 

 

 

General

Complete name : R:\GAMES\RepackGames.Net – Conquest of Elysium 4\Conquest of Elysium 4\New folder\coe4.app\Contents\Frameworks\SDL.framework\Headers\SDL_joystick.h
File size : 5.08 KiB

 

 

 

General

Complete name : R:\GAMES\RepackGames.Net – Conquest of Elysium 4\Conquest of Elysium 4\New folder\coe4.app\Contents\Frameworks\SDL.framework\Headers\SDL_keyboard.h
File size : 3.79 KiB

 

 

 

General

Complete name : R:\GAMES\RepackGames.Net – Conquest of Elysium 4\Conquest of Elysium 4\New folder\coe4.app\Contents\Frameworks\SDL.framework\Headers\SDL_keysym.h
File size : 6.99 KiB

 

 

 

General

Complete name : R:\GAMES\RepackGames.Net – Conquest of Elysium 4\Conquest of Elysium 4\New folder\coe4.app\Contents\Frameworks\SDL.framework\Headers\SDL_loadso.h
File size : 2.70 KiB

 

 

 

General

Complete name : R:\GAMES\RepackGames.Net – Conquest of Elysium 4\Conquest of Elysium 4\New folder\coe4.app\Contents\Frameworks\SDL.framework\Headers\SDL_main.h
File size : 2.67 KiB

 

 

 

General

Complete name : R:\GAMES\RepackGames.Net – Conquest of Elysium 4\Conquest of Elysium 4\New folder\coe4.app\Contents\Frameworks\SDL.framework\Headers\SDL_mouse.h
File size : 4.58 KiB

 

 

 

General

Complete name : R:\GAMES\RepackGames.Net – Conquest of Elysium 4\Conquest of Elysium 4\New folder\coe4.app\Contents\Frameworks\SDL.framework\Headers\SDL_mutex.h
File size : 5.57 KiB

 

 

 

General

Complete name : R:\GAMES\RepackGames.Net – Conquest of Elysium 4\Conquest of Elysium 4\New folder\coe4.app\Contents\Frameworks\SDL.framework\Headers\SDL_name.h
File size : 183 Bytes

 

 

 

General

Complete name : R:\GAMES\RepackGames.Net – Conquest of Elysium 4\Conquest of Elysium 4\New folder\coe4.app\Contents\Frameworks\SDL.framework\Headers\SDL_opengl.h
File size : 328 KiB

 

 

 

General

Complete name : R:\GAMES\RepackGames.Net – Conquest of Elysium 4\Conquest of Elysium 4\New folder\coe4.app\Contents\Frameworks\SDL.framework\Headers\SDL_platform.h
File size : 2.46 KiB

 

 

 

General

Complete name : R:\GAMES\RepackGames.Net – Conquest of Elysium 4\Conquest of Elysium 4\New folder\coe4.app\Contents\Frameworks\SDL.framework\Headers\SDL_quit.h
File size : 1.87 KiB

 

 

 

General

Complete name : R:\GAMES\RepackGames.Net – Conquest of Elysium 4\Conquest of Elysium 4\New folder\coe4.app\Contents\Frameworks\SDL.framework\Headers\SDL_rwops.h
File size : 4.67 KiB

 

 

 

General

Complete name : R:\GAMES\RepackGames.Net – Conquest of Elysium 4\Conquest of Elysium 4\New folder\coe4.app\Contents\Frameworks\SDL.framework\Headers\SDL_stdinc.h
File size : 15.3 KiB

 

 

 

General

Complete name : R:\GAMES\RepackGames.Net – Conquest of Elysium 4\Conquest of Elysium 4\New folder\coe4.app\Contents\Frameworks\SDL.framework\Headers\SDL_syswm.h
File size : 5.85 KiB

 

 

 

General

Complete name : R:\GAMES\RepackGames.Net – Conquest of Elysium 4\Conquest of Elysium 4\New folder\coe4.app\Contents\Frameworks\SDL.framework\Headers\SDL_thread.h
File size : 4.33 KiB

 

 

 

General

Complete name : R:\GAMES\RepackGames.Net – Conquest of Elysium 4\Conquest of Elysium 4\New folder\coe4.app\Contents\Frameworks\SDL.framework\Headers\SDL_timer.h
File size : 4.32 KiB

 

 

 

General

Complete name : R:\GAMES\RepackGames.Net – Conquest of Elysium 4\Conquest of Elysium 4\New folder\coe4.app\Contents\Frameworks\SDL.framework\Headers\SDL_types.h
File size : 910 Bytes

 

 

 

General

Complete name : R:\GAMES\RepackGames.Net – Conquest of Elysium 4\Conquest of Elysium 4\New folder\coe4.app\Contents\Frameworks\SDL.framework\Headers\SDL_version.h
File size : 2.50 KiB

 

 

 

General

Complete name : R:\GAMES\RepackGames.Net – Conquest of Elysium 4\Conquest of Elysium 4\New folder\coe4.app\Contents\Frameworks\SDL.framework\Headers\SDL_video.h
File size : 36.2 KiB

 

 

 

General

Complete name : R:\GAMES\RepackGames.Net – Conquest of Elysium 4\Conquest of Elysium 4\New folder\coe4.app\Contents\Frameworks\SDL.framework\Resources\Info.plist
File size : 789 Bytes

 

 

 

General

Complete name : R:\GAMES\RepackGames.Net – Conquest of Elysium 4\Conquest of Elysium 4\New folder\coe4.app\Contents\Frameworks\SDL.framework\Resources\SDLMain.nib\classes.nib
File size : 302 Bytes

 

 

 

General

Complete name : R:\GAMES\RepackGames.Net – Conquest of Elysium 4\Conquest of Elysium 4\New folder\coe4.app\Contents\Frameworks\SDL.framework\Resources\SDLMain.nib\info.nib
File size : 352 Bytes

 

 

 

General

Complete name : R:\GAMES\RepackGames.Net – Conquest of Elysium 4\Conquest of Elysium 4\New folder\coe4.app\Contents\Frameworks\SDL.framework\Resources\SDLMain.nib\objects.nib
File size : 1.66 KiB

 

 

 

General

Complete name : R:\GAMES\RepackGames.Net – Conquest of Elysium 4\Conquest of Elysium 4\New folder\coe4.app\Contents\Frameworks\SDL.framework\SDL
File size : 905 KiB

 

 

 

General

Complete name : R:\GAMES\RepackGames.Net – Conquest of Elysium 4\Conquest of Elysium 4\New folder\coe4.app\Contents\Frameworks\SDL.framework\Versions\A\Headers\begin_code.h
File size : 4.23 KiB

 

 

 

General

Complete name : R:\GAMES\RepackGames.Net – Conquest of Elysium 4\Conquest of Elysium 4\New folder\coe4.app\Contents\Frameworks\SDL.framework\Versions\A\Headers\close_code.h
File size : 1.39 KiB

 

 

 

General

Complete name : R:\GAMES\RepackGames.Net – Conquest of Elysium 4\Conquest of Elysium 4\New folder\coe4.app\Contents\Frameworks\SDL.framework\Versions\A\Headers\SDL.h
File size : 3.06 KiB

 

 

 

General

Complete name : R:\GAMES\RepackGames.Net – Conquest of Elysium 4\Conquest of Elysium 4\New folder\coe4.app\Contents\Frameworks\SDL.framework\Versions\A\Headers\SDL_active.h
File size : 1.83 KiB

 

 

 

General

Complete name : R:\GAMES\RepackGames.Net – Conquest of Elysium 4\Conquest of Elysium 4\New folder\coe4.app\Contents\Frameworks\SDL.framework\Versions\A\Headers\SDL_audio.h
File size : 10.6 KiB

 

 

 

General

Complete name : R:\GAMES\RepackGames.Net – Conquest of Elysium 4\Conquest of Elysium 4\New folder\coe4.app\Contents\Frameworks\SDL.framework\Versions\A\Headers\SDL_byteorder.h
File size : 910 Bytes

 

 

 

General

Complete name : R:\GAMES\RepackGames.Net – Conquest of Elysium 4\Conquest of Elysium 4\New folder\coe4.app\Contents\Frameworks\SDL.framework\Versions\A\Headers\SDL_cdrom.h
File size : 5.52 KiB

 

 

 

General

Complete name : R:\GAMES\RepackGames.Net – Conquest of Elysium 4\Conquest of Elysium 4\New folder\coe4.app\Contents\Frameworks\SDL.framework\Versions\A\Headers\SDL_config.h
File size : 1.44 KiB

 

 

 

General

Complete name : R:\GAMES\RepackGames.Net – Conquest of Elysium 4\Conquest of Elysium 4\New folder\coe4.app\Contents\Frameworks\SDL.framework\Versions\A\Headers\SDL_config_dreamcast.h
File size : 2.74 KiB

 

 

 

General

Complete name : R:\GAMES\RepackGames.Net – Conquest of Elysium 4\Conquest of Elysium 4\New folder\coe4.app\Contents\Frameworks\SDL.framework\Versions\A\Headers\SDL_config_macos.h
File size : 2.74 KiB

 

 

 

General

Complete name : R:\GAMES\RepackGames.Net – Conquest of Elysium 4\Conquest of Elysium 4\New folder\coe4.app\Contents\Frameworks\SDL.framework\Versions\A\Headers\SDL_config_macosx.h
File size : 3.45 KiB

 

 

 

General

Complete name : R:\GAMES\RepackGames.Net – Conquest of Elysium 4\Conquest of Elysium 4\New folder\coe4.app\Contents\Frameworks\SDL.framework\Versions\A\Headers\SDL_config_os2.h
File size : 3.55 KiB

 

 

 

General

Complete name : R:\GAMES\RepackGames.Net – Conquest of Elysium 4\Conquest of Elysium 4\New folder\coe4.app\Contents\Frameworks\SDL.framework\Versions\A\Headers\SDL_config_win32.h
File size : 4.40 KiB

 

 

 

General

Complete name : R:\GAMES\RepackGames.Net – Conquest of Elysium 4\Conquest of Elysium 4\New folder\coe4.app\Contents\Frameworks\SDL.framework\Versions\A\Headers\SDL_copying.h
File size : 869 Bytes

 

 

 

General

Complete name : R:\GAMES\RepackGames.Net – Conquest of Elysium 4\Conquest of Elysium 4\New folder\coe4.app\Contents\Frameworks\SDL.framework\Versions\A\Headers\SDL_cpuinfo.h
File size : 2.25 KiB

 

 

 

General

Complete name : R:\GAMES\RepackGames.Net – Conquest of Elysium 4\Conquest of Elysium 4\New folder\coe4.app\Contents\Frameworks\SDL.framework\Versions\A\Headers\SDL_endian.h
File size : 5.52 KiB

 

 

 

General

Complete name : R:\GAMES\RepackGames.Net – Conquest of Elysium 4\Conquest of Elysium 4\New folder\coe4.app\Contents\Frameworks\SDL.framework\Versions\A\Headers\SDL_error.h
File size : 1.72 KiB

 

 

 

General

Complete name : R:\GAMES\RepackGames.Net – Conquest of Elysium 4\Conquest of Elysium 4\New folder\coe4.app\Contents\Frameworks\SDL.framework\Versions\A\Headers\SDL_events.h
File size : 12.3 KiB

 

 

 

General

Complete name : R:\GAMES\RepackGames.Net – Conquest of Elysium 4\Conquest of Elysium 4\New folder\coe4.app\Contents\Frameworks\SDL.framework\Versions\A\Headers\SDL_getenv.h
File size : 910 Bytes

 

 

 

General

Complete name : R:\GAMES\RepackGames.Net – Conquest of Elysium 4\Conquest of Elysium 4\New folder\coe4.app\Contents\Frameworks\SDL.framework\Versions\A\Headers\SDL_joystick.h
File size : 5.08 KiB

 

 

 

General

Complete name : R:\GAMES\RepackGames.Net – Conquest of Elysium 4\Conquest of Elysium 4\New folder\coe4.app\Contents\Frameworks\SDL.framework\Versions\A\Headers\SDL_keyboard.h
File size : 3.79 KiB

 

 

 

General

Complete name : R:\GAMES\RepackGames.Net – Conquest of Elysium 4\Conquest of Elysium 4\New folder\coe4.app\Contents\Frameworks\SDL.framework\Versions\A\Headers\SDL_keysym.h
File size : 6.99 KiB

 

 

 

General

Complete name : R:\GAMES\RepackGames.Net – Conquest of Elysium 4\Conquest of Elysium 4\New folder\coe4.app\Contents\Frameworks\SDL.framework\Versions\A\Headers\SDL_loadso.h
File size : 2.70 KiB

 

 

 

General

Complete name : R:\GAMES\RepackGames.Net – Conquest of Elysium 4\Conquest of Elysium 4\New folder\coe4.app\Contents\Frameworks\SDL.framework\Versions\A\Headers\SDL_main.h
File size : 2.67 KiB

 

 

 

General

Complete name : R:\GAMES\RepackGames.Net – Conquest of Elysium 4\Conquest of Elysium 4\New folder\coe4.app\Contents\Frameworks\SDL.framework\Versions\A\Headers\SDL_mouse.h
File size : 4.58 KiB

 

 

 

General

Complete name : R:\GAMES\RepackGames.Net – Conquest of Elysium 4\Conquest of Elysium 4\New folder\coe4.app\Contents\Frameworks\SDL.framework\Versions\A\Headers\SDL_mutex.h
File size : 5.57 KiB

 

 

 

General

Complete name : R:\GAMES\RepackGames.Net – Conquest of Elysium 4\Conquest of Elysium 4\New folder\coe4.app\Contents\Frameworks\SDL.framework\Versions\A\Headers\SDL_name.h
File size : 183 Bytes

 

 

 

General

Complete name : R:\GAMES\RepackGames.Net – Conquest of Elysium 4\Conquest of Elysium 4\New folder\coe4.app\Contents\Frameworks\SDL.framework\Versions\A\Headers\SDL_opengl.h
File size : 328 KiB

 

 

 

General

Complete name : R:\GAMES\RepackGames.Net – Conquest of Elysium 4\Conquest of Elysium 4\New folder\coe4.app\Contents\Frameworks\SDL.framework\Versions\A\Headers\SDL_platform.h
File size : 2.46 KiB

 

 

 

General

Complete name : R:\GAMES\RepackGames.Net – Conquest of Elysium 4\Conquest of Elysium 4\New folder\coe4.app\Contents\Frameworks\SDL.framework\Versions\A\Headers\SDL_quit.h
File size : 1.87 KiB

 

 

 

General

Complete name : R:\GAMES\RepackGames.Net – Conquest of Elysium 4\Conquest of Elysium 4\New folder\coe4.app\Contents\Frameworks\SDL.framework\Versions\A\Headers\SDL_rwops.h
File size : 4.67 KiB

 

 

 

General

Complete name : R:\GAMES\RepackGames.Net – Conquest of Elysium 4\Conquest of Elysium 4\New folder\coe4.app\Contents\Frameworks\SDL.framework\Versions\A\Headers\SDL_stdinc.h
File size : 15.3 KiB

 

 

 

General

Complete name : R:\GAMES\RepackGames.Net – Conquest of Elysium 4\Conquest of Elysium 4\New folder\coe4.app\Contents\Frameworks\SDL.framework\Versions\A\Headers\SDL_syswm.h
File size : 5.85 KiB

 

 

 

General

Complete name : R:\GAMES\RepackGames.Net – Conquest of Elysium 4\Conquest of Elysium 4\New folder\coe4.app\Contents\Frameworks\SDL.framework\Versions\A\Headers\SDL_thread.h
File size : 4.33 KiB

 

 

 

General

Complete name : R:\GAMES\RepackGames.Net – Conquest of Elysium 4\Conquest of Elysium 4\New folder\coe4.app\Contents\Frameworks\SDL.framework\Versions\A\Headers\SDL_timer.h
File size : 4.32 KiB

 

 

 

General

Complete name : R:\GAMES\RepackGames.Net – Conquest of Elysium 4\Conquest of Elysium 4\New folder\coe4.app\Contents\Frameworks\SDL.framework\Versions\A\Headers\SDL_types.h
File size : 910 Bytes

 

 

 

General

Complete name : R:\GAMES\RepackGames.Net – Conquest of Elysium 4\Conquest of Elysium 4\New folder\coe4.app\Contents\Frameworks\SDL.framework\Versions\A\Headers\SDL_version.h
File size : 2.50 KiB

 

 

 

General

Complete name : R:\GAMES\RepackGames.Net – Conquest of Elysium 4\Conquest of Elysium 4\New folder\coe4.app\Contents\Frameworks\SDL.framework\Versions\A\Headers\SDL_video.h
File size : 36.2 KiB

 

 

 

General

Complete name : R:\GAMES\RepackGames.Net – Conquest of Elysium 4\Conquest of Elysium 4\New folder\coe4.app\Contents\Frameworks\SDL.framework\Versions\A\Resources\Info.plist
File size : 789 Bytes

 

 

 

General

Complete name : R:\GAMES\RepackGames.Net – Conquest of Elysium 4\Conquest of Elysium 4\New folder\coe4.app\Contents\Frameworks\SDL.framework\Versions\A\Resources\SDLMain.nib\classes.nib
File size : 302 Bytes

 

 

 

General

Complete name : R:\GAMES\RepackGames.Net – Conquest of Elysium 4\Conquest of Elysium 4\New folder\coe4.app\Contents\Frameworks\SDL.framework\Versions\A\Resources\SDLMain.nib\info.nib
File size : 352 Bytes

 

 

 

General

Complete name : R:\GAMES\RepackGames.Net – Conquest of Elysium 4\Conquest of Elysium 4\New folder\coe4.app\Contents\Frameworks\SDL.framework\Versions\A\Resources\SDLMain.nib\objects.nib
File size : 1.66 KiB

 

 

 

General

Complete name : R:\GAMES\RepackGames.Net – Conquest of Elysium 4\Conquest of Elysium 4\New folder\coe4.app\Contents\Frameworks\SDL.framework\Versions\A\SDL
File size : 905 KiB

 

 

 

General

Complete name : R:\GAMES\RepackGames.Net – Conquest of Elysium 4\Conquest of Elysium 4\New folder\coe4.app\Contents\Frameworks\SDL.framework\Versions\Current\Headers\begin_code.h
File size : 4.23 KiB

 

 

 

General

Complete name : R:\GAMES\RepackGames.Net – Conquest of Elysium 4\Conquest of Elysium 4\New folder\coe4.app\Contents\Frameworks\SDL.framework\Versions\Current\Headers\close_code.h
File size : 1.39 KiB

 

 

 

General

Complete name : R:\GAMES\RepackGames.Net – Conquest of Elysium 4\Conquest of Elysium 4\New folder\coe4.app\Contents\Frameworks\SDL.framework\Versions\Current\Headers\SDL.h
File size : 3.06 KiB

 

 

 

General

Complete name : R:\GAMES\RepackGames.Net – Conquest of Elysium 4\Conquest of Elysium 4\New folder\coe4.app\Contents\Frameworks\SDL.framework\Versions\Current\Headers\SDL_active.h
File size : 1.83 KiB

 

 

 

General

Complete name : R:\GAMES\RepackGames.Net – Conquest of Elysium 4\Conquest of Elysium 4\New folder\coe4.app\Contents\Frameworks\SDL.framework\Versions\Current\Headers\SDL_audio.h
File size : 10.6 KiB

 

 

 

General

Complete name : R:\GAMES\RepackGames.Net – Conquest of Elysium 4\Conquest of Elysium 4\New folder\coe4.app\Contents\Frameworks\SDL.framework\Versions\Current\Headers\SDL_byteorder.h
File size : 910 Bytes

 

 

 

General

Complete name : R:\GAMES\RepackGames.Net – Conquest of Elysium 4\Conquest of Elysium 4\New folder\coe4.app\Contents\Frameworks\SDL.framework\Versions\Current\Headers\SDL_cdrom.h
File size : 5.52 KiB

 

 

 

General

Complete name : R:\GAMES\RepackGames.Net – Conquest of Elysium 4\Conquest of Elysium 4\New folder\coe4.app\Contents\Frameworks\SDL.framework\Versions\Current\Headers\SDL_config.h
File size : 1.44 KiB

 

 

 

General

Complete name : R:\GAMES\RepackGames.Net – Conquest of Elysium 4\Conquest of Elysium 4\New folder\coe4.app\Contents\Frameworks\SDL.framework\Versions\Current\Headers\SDL_config_dreamcast.h
File size : 2.74 KiB

 

 

 

General

Complete name : R:\GAMES\RepackGames.Net – Conquest of Elysium 4\Conquest of Elysium 4\New folder\coe4.app\Contents\Frameworks\SDL.framework\Versions\Current\Headers\SDL_config_macos.h
File size : 2.74 KiB

 

 

 

General

Complete name : R:\GAMES\RepackGames.Net – Conquest of Elysium 4\Conquest of Elysium 4\New folder\coe4.app\Contents\Frameworks\SDL.framework\Versions\Current\Headers\SDL_config_macosx.h
File size : 3.45 KiB

 

 

 

General

Complete name : R:\GAMES\RepackGames.Net – Conquest of Elysium 4\Conquest of Elysium 4\New folder\coe4.app\Contents\Frameworks\SDL.framework\Versions\Current\Headers\SDL_config_os2.h
File size : 3.55 KiB

 

 

 

General

Complete name : R:\GAMES\RepackGames.Net – Conquest of Elysium 4\Conquest of Elysium 4\New folder\coe4.app\Contents\Frameworks\SDL.framework\Versions\Current\Headers\SDL_config_win32.h
File size : 4.40 KiB

 

 

 

General

Complete name : R:\GAMES\RepackGames.Net – Conquest of Elysium 4\Conquest of Elysium 4\New folder\coe4.app\Contents\Frameworks\SDL.framework\Versions\Current\Headers\SDL_copying.h
File size : 869 Bytes

 

 

 

General

Complete name : R:\GAMES\RepackGames.Net – Conquest of Elysium 4\Conquest of Elysium 4\New folder\coe4.app\Contents\Frameworks\SDL.framework\Versions\Current\Headers\SDL_cpuinfo.h
File size : 2.25 KiB

 

 

 

General

Complete name : R:\GAMES\RepackGames.Net – Conquest of Elysium 4\Conquest of Elysium 4\New folder\coe4.app\Contents\Frameworks\SDL.framework\Versions\Current\Headers\SDL_endian.h
File size : 5.52 KiB

 

 

 

General

Complete name : R:\GAMES\RepackGames.Net – Conquest of Elysium 4\Conquest of Elysium 4\New folder\coe4.app\Contents\Frameworks\SDL.framework\Versions\Current\Headers\SDL_error.h
File size : 1.72 KiB

 

 

 

General

Complete name : R:\GAMES\RepackGames.Net – Conquest of Elysium 4\Conquest of Elysium 4\New folder\coe4.app\Contents\Frameworks\SDL.framework\Versions\Current\Headers\SDL_events.h
File size : 12.3 KiB

 

 

 

General

Complete name : R:\GAMES\RepackGames.Net – Conquest of Elysium 4\Conquest of Elysium 4\New folder\coe4.app\Contents\Frameworks\SDL.framework\Versions\Current\Headers\SDL_getenv.h
File size : 910 Bytes

 

 

 

General

Complete name : R:\GAMES\RepackGames.Net – Conquest of Elysium 4\Conquest of Elysium 4\New folder\coe4.app\Contents\Frameworks\SDL.framework\Versions\Current\Headers\SDL_joystick.h
File size : 5.08 KiB

 

 

 

General

Complete name : R:\GAMES\RepackGames.Net – Conquest of Elysium 4\Conquest of Elysium 4\New folder\coe4.app\Contents\Frameworks\SDL.framework\Versions\Current\Headers\SDL_keyboard.h
File size : 3.79 KiB

 

 

 

General

Complete name : R:\GAMES\RepackGames.Net – Conquest of Elysium 4\Conquest of Elysium 4\New folder\coe4.app\Contents\Frameworks\SDL.framework\Versions\Current\Headers\SDL_keysym.h
File size : 6.99 KiB

 

 

 

General

Complete name : R:\GAMES\RepackGames.Net – Conquest of Elysium 4\Conquest of Elysium 4\New folder\coe4.app\Contents\Frameworks\SDL.framework\Versions\Current\Headers\SDL_loadso.h
File size : 2.70 KiB

 

 

 

General

Complete name : R:\GAMES\RepackGames.Net – Conquest of Elysium 4\Conquest of Elysium 4\New folder\coe4.app\Contents\Frameworks\SDL.framework\Versions\Current\Headers\SDL_main.h
File size : 2.67 KiB

 

 

 

General

Complete name : R:\GAMES\RepackGames.Net – Conquest of Elysium 4\Conquest of Elysium 4\New folder\coe4.app\Contents\Frameworks\SDL.framework\Versions\Current\Headers\SDL_mouse.h
File size : 4.58 KiB

 

 

 

General

Complete name : R:\GAMES\RepackGames.Net – Conquest of Elysium 4\Conquest of Elysium 4\New folder\coe4.app\Contents\Frameworks\SDL.framework\Versions\Current\Headers\SDL_mutex.h
File size : 5.57 KiB

 

 

 

General

Complete name : R:\GAMES\RepackGames.Net – Conquest of Elysium 4\Conquest of Elysium 4\New folder\coe4.app\Contents\Frameworks\SDL.framework\Versions\Current\Headers\SDL_name.h
File size : 183 Bytes

 

 

 

General

Complete name : R:\GAMES\RepackGames.Net – Conquest of Elysium 4\Conquest of Elysium 4\New folder\coe4.app\Contents\Frameworks\SDL.framework\Versions\Current\Headers\SDL_opengl.h
File size : 328 KiB

 

 

 

General

Complete name : R:\GAMES\RepackGames.Net – Conquest of Elysium 4\Conquest of Elysium 4\New folder\coe4.app\Contents\Frameworks\SDL.framework\Versions\Current\Headers\SDL_platform.h
File size : 2.46 KiB

 

 

 

General

Complete name : R:\GAMES\RepackGames.Net – Conquest of Elysium 4\Conquest of Elysium 4\New folder\coe4.app\Contents\Frameworks\SDL.framework\Versions\Current\Headers\SDL_quit.h
File size : 1.87 KiB

 

 

 

General

Complete name : R:\GAMES\RepackGames.Net – Conquest of Elysium 4\Conquest of Elysium 4\New folder\coe4.app\Contents\Frameworks\SDL.framework\Versions\Current\Headers\SDL_rwops.h
File size : 4.67 KiB

 

 

 

General

Complete name : R:\GAMES\RepackGames.Net – Conquest of Elysium 4\Conquest of Elysium 4\New folder\coe4.app\Contents\Frameworks\SDL.framework\Versions\Current\Headers\SDL_stdinc.h
File size : 15.3 KiB

 

 

 

General

Complete name : R:\GAMES\RepackGames.Net – Conquest of Elysium 4\Conquest of Elysium 4\New folder\coe4.app\Contents\Frameworks\SDL.framework\Versions\Current\Headers\SDL_syswm.h
File size : 5.85 KiB

 

 

 

General

Complete name : R:\GAMES\RepackGames.Net – Conquest of Elysium 4\Conquest of Elysium 4\New folder\coe4.app\Contents\Frameworks\SDL.framework\Versions\Current\Headers\SDL_thread.h
File size : 4.33 KiB

 

 

 

General

Complete name : R:\GAMES\RepackGames.Net – Conquest of Elysium 4\Conquest of Elysium 4\New folder\coe4.app\Contents\Frameworks\SDL.framework\Versions\Current\Headers\SDL_timer.h
File size : 4.32 KiB

 

 

 

General

Complete name : R:\GAMES\RepackGames.Net – Conquest of Elysium 4\Conquest of Elysium 4\New folder\coe4.app\Contents\Frameworks\SDL.framework\Versions\Current\Headers\SDL_types.h
File size : 910 Bytes

 

 

 

General

Complete name : R:\GAMES\RepackGames.Net – Conquest of Elysium 4\Conquest of Elysium 4\New folder\coe4.app\Contents\Frameworks\SDL.framework\Versions\Current\Headers\SDL_version.h
File size : 2.50 KiB

 

 

 

General

Complete name : R:\GAMES\RepackGames.Net – Conquest of Elysium 4\Conquest of Elysium 4\New folder\coe4.app\Contents\Frameworks\SDL.framework\Versions\Current\Headers\SDL_video.h
File size : 36.2 KiB

 

 

 

General

Complete name : R:\GAMES\RepackGames.Net – Conquest of Elysium 4\Conquest of Elysium 4\New folder\coe4.app\Contents\Frameworks\SDL.framework\Versions\Current\Resources\Info.plist
File size : 789 Bytes

 

 

 

General

Complete name : R:\GAMES\RepackGames.Net – Conquest of Elysium 4\Conquest of Elysium 4\New folder\coe4.app\Contents\Frameworks\SDL.framework\Versions\Current\Resources\SDLMain.nib\classes.nib
File size : 302 Bytes

 

 

 

General

Complete name : R:\GAMES\RepackGames.Net – Conquest of Elysium 4\Conquest of Elysium 4\New folder\coe4.app\Contents\Frameworks\SDL.framework\Versions\Current\Resources\SDLMain.nib\info.nib
File size : 352 Bytes

 

 

 

General

Complete name : R:\GAMES\RepackGames.Net – Conquest of Elysium 4\Conquest of Elysium 4\New folder\coe4.app\Contents\Frameworks\SDL.framework\Versions\Current\Resources\SDLMain.nib\objects.nib
File size : 1.66 KiB

 

 

 

General

Complete name : R:\GAMES\RepackGames.Net – Conquest of Elysium 4\Conquest of Elysium 4\New folder\coe4.app\Contents\Frameworks\SDL.framework\Versions\Current\SDL
File size : 905 KiB

 

 

 

General

Complete name : R:\GAMES\RepackGames.Net – Conquest of Elysium 4\Conquest of Elysium 4\New folder\coe4.app\Contents\Frameworks\SDL_ttf.framework\Headers\SDL_ttf.h
File size : 9.60 KiB

 

 

 

General

Complete name : R:\GAMES\RepackGames.Net – Conquest of Elysium 4\Conquest of Elysium 4\New folder\coe4.app\Contents\Frameworks\SDL_ttf.framework\Resources\Info.plist
File size : 808 Bytes

 

 

 

General

Complete name : R:\GAMES\RepackGames.Net – Conquest of Elysium 4\Conquest of Elysium 4\New folder\coe4.app\Contents\Frameworks\SDL_ttf.framework\SDL_ttf
File size : 3.23 MiB

 

 

 

General

Complete name : R:\GAMES\RepackGames.Net – Conquest of Elysium 4\Conquest of Elysium 4\New folder\coe4.app\Contents\Frameworks\SDL_ttf.framework\Versions\A\Headers\SDL_ttf.h
File size : 9.60 KiB

 

 

 

General

Complete name : R:\GAMES\RepackGames.Net – Conquest of Elysium 4\Conquest of Elysium 4\New folder\coe4.app\Contents\Frameworks\SDL_ttf.framework\Versions\A\Resources\Info.plist
File size : 808 Bytes

 

 

 

General

Complete name : R:\GAMES\RepackGames.Net – Conquest of Elysium 4\Conquest of Elysium 4\New folder\coe4.app\Contents\Frameworks\SDL_ttf.framework\Versions\A\SDL_ttf
File size : 3.23 MiB

 

 

 

General

Complete name : R:\GAMES\RepackGames.Net – Conquest of Elysium 4\Conquest of Elysium 4\New folder\coe4.app\Contents\Frameworks\SDL_ttf.framework\Versions\Current\Headers\SDL_ttf.h
File size : 9.60 KiB

 

 

 

General

Complete name : R:\GAMES\RepackGames.Net – Conquest of Elysium 4\Conquest of Elysium 4\New folder\coe4.app\Contents\Frameworks\SDL_ttf.framework\Versions\Current\Resources\Info.plist
File size : 808 Bytes

 

 

 

General

Complete name : R:\GAMES\RepackGames.Net – Conquest of Elysium 4\Conquest of Elysium 4\New folder\coe4.app\Contents\Frameworks\SDL_ttf.framework\Versions\Current\SDL_ttf
File size : 3.23 MiB

 

 

 

General

Complete name : R:\GAMES\RepackGames.Net – Conquest of Elysium 4\Conquest of Elysium 4\New folder\coe4.app\Contents\Info.plist
File size : 823 Bytes

 

 

 

General

Complete name : R:\GAMES\RepackGames.Net – Conquest of Elysium 4\Conquest of Elysium 4\New folder\coe4.app\Contents\MacOS\coe4
File size : 34.7 MiB

 

 

 

General

Complete name : R:\GAMES\RepackGames.Net – Conquest of Elysium 4\Conquest of Elysium 4\New folder\coe4.app\Contents\PkgInfo
File size : 8.00 Bytes

 

 

 

General

Complete name : R:\GAMES\RepackGames.Net – Conquest of Elysium 4\Conquest of Elysium 4\New folder\coe4.app\Contents\Resources\coe4icon.icns
File size : 34.0 KiB

 

 

 

General

Complete name : R:\GAMES\RepackGames.Net – Conquest of Elysium 4\Conquest of Elysium 4\New folder\coe4.app\Contents\Resources\dracolion.icns
File size : 40.6 KiB

 

 

 

General

Complete name : R:\GAMES\RepackGames.Net – Conquest of Elysium 4\Conquest of Elysium 4\New folder\coe4.app\Contents\Resources\English.lproj\InfoPlist.strings
File size : 534 Bytes

 

 

 

General

Complete name : R:\GAMES\RepackGames.Net – Conquest of Elysium 4\Conquest of Elysium 4\New folder\data\adrian10.al2
File size : 8.37 MiB

 

 

 

General

Complete name : R:\GAMES\RepackGames.Net – Conquest of Elysium 4\Conquest of Elysium 4\New folder\data\adrian11.al2
File size : 7.71 MiB

 

 

 

General

Complete name : R:\GAMES\RepackGames.Net – Conquest of Elysium 4\Conquest of Elysium 4\New folder\data\adrian110.al2
File size : 34.2 MiB

 

 

 

General

Complete name : R:\GAMES\RepackGames.Net – Conquest of Elysium 4\Conquest of Elysium 4\New folder\data\adrian116.al2
File size : 7.14 MiB

 

 

 

General

Complete name : R:\GAMES\RepackGames.Net – Conquest of Elysium 4\Conquest of Elysium 4\New folder\data\adrian129.al2
File size : 9.21 MiB

 

 

 

General

Complete name : R:\GAMES\RepackGames.Net – Conquest of Elysium 4\Conquest of Elysium 4\New folder\data\adrian13.al2
File size : 13.8 MiB

 

 

 

General

Complete name : R:\GAMES\RepackGames.Net – Conquest of Elysium 4\Conquest of Elysium 4\New folder\data\adrian130.al2
File size : 12.5 MiB

 

 

 

General

Complete name : R:\GAMES\RepackGames.Net – Conquest of Elysium 4\Conquest of Elysium 4\New folder\data\adrian14.al2
File size : 12.2 MiB

 

 

 

General

Complete name : R:\GAMES\RepackGames.Net – Conquest of Elysium 4\Conquest of Elysium 4\New folder\data\adrian17.al2
File size : 9.46 MiB

 

 

 

General

Complete name : R:\GAMES\RepackGames.Net – Conquest of Elysium 4\Conquest of Elysium 4\New folder\data\adrian18.al2
File size : 52.3 MiB

 

 

 

General

Complete name : R:\GAMES\RepackGames.Net – Conquest of Elysium 4\Conquest of Elysium 4\New folder\data\adrian20.al2
File size : 51.0 MiB

 

 

 

General

Complete name : R:\GAMES\RepackGames.Net – Conquest of Elysium 4\Conquest of Elysium 4\New folder\data\adrian22.al2
File size : 10.6 MiB

 

 

 

General

Complete name : R:\GAMES\RepackGames.Net – Conquest of Elysium 4\Conquest of Elysium 4\New folder\data\adrian226.al2
File size : 10.9 MiB

 

 

 

General

Complete name : R:\GAMES\RepackGames.Net – Conquest of Elysium 4\Conquest of Elysium 4\New folder\data\adrian23.al2
File size : 7.01 MiB

 

 

 

General

Complete name : R:\GAMES\RepackGames.Net – Conquest of Elysium 4\Conquest of Elysium 4\New folder\data\adrian233.al2
File size : 9.93 MiB

 

 

 

General

Complete name : R:\GAMES\RepackGames.Net – Conquest of Elysium 4\Conquest of Elysium 4\New folder\data\adrian24.al2
File size : 11.1 MiB

 

 

 

General

Complete name : R:\GAMES\RepackGames.Net – Conquest of Elysium 4\Conquest of Elysium 4\New folder\data\adrian25.al2
File size : 7.81 MiB

 

 

 

General

Complete name : R:\GAMES\RepackGames.Net – Conquest of Elysium 4\Conquest of Elysium 4\New folder\data\adrian26.al2
File size : 13.6 MiB

 

 

 

General

Complete name : R:\GAMES\RepackGames.Net – Conquest of Elysium 4\Conquest of Elysium 4\New folder\data\adrian29.al2
File size : 7.46 MiB

 

 

 

General

Complete name : R:\GAMES\RepackGames.Net – Conquest of Elysium 4\Conquest of Elysium 4\New folder\data\adrian30.al2
File size : 7.71 MiB

 

 

 

General

Complete name : R:\GAMES\RepackGames.Net – Conquest of Elysium 4\Conquest of Elysium 4\New folder\data\adrian52.al2
File size : 6.56 MiB

 

 

 

General

Complete name : R:\GAMES\RepackGames.Net – Conquest of Elysium 4\Conquest of Elysium 4\New folder\data\adrian64.al2
File size : 6.61 MiB

 

 

 

General

Complete name : R:\GAMES\RepackGames.Net – Conquest of Elysium 4\Conquest of Elysium 4\New folder\data\adrian7.al2
File size : 8.07 MiB

 

 

 

General

Complete name : R:\GAMES\RepackGames.Net – Conquest of Elysium 4\Conquest of Elysium 4\New folder\data\adrian72.al2
File size : 9.11 MiB

 

 

 

General

Complete name : R:\GAMES\RepackGames.Net – Conquest of Elysium 4\Conquest of Elysium 4\New folder\data\adrian73.al2
File size : 14.3 MiB

 

 

 

General

Complete name : R:\GAMES\RepackGames.Net – Conquest of Elysium 4\Conquest of Elysium 4\New folder\data\adrian74.al2
File size : 14.3 MiB

 

 

 

General

Complete name : R:\GAMES\RepackGames.Net – Conquest of Elysium 4\Conquest of Elysium 4\New folder\data\adrian89.al2
File size : 9.53 MiB

 

 

 

General

Complete name : R:\GAMES\RepackGames.Net – Conquest of Elysium 4\Conquest of Elysium 4\New folder\data\adrian92.al2
File size : 8.82 MiB

 

 

 

General

Complete name : R:\GAMES\RepackGames.Net – Conquest of Elysium 4\Conquest of Elysium 4\New folder\data\air.smp
File size : 10.8 KiB

 

 

 

General

Complete name : R:\GAMES\RepackGames.Net – Conquest of Elysium 4\Conquest of Elysium 4\New folder\data\airduct.smp
File size : 20.0 KiB

 

 

 

General

Complete name : R:\GAMES\RepackGames.Net – Conquest of Elysium 4\Conquest of Elysium 4\New folder\data\ambush.wav
Format : Wave
File size : 335 KiB
Duration : 3s 892ms
Overall bit rate mode : Constant
Overall bit rate : 706 Kbps

 

Audio

Format : PCM
Format settings, Endianness : Little
Format settings, Sign : Signed
Codec ID : 1
Duration : 3s 892ms
Bit rate mode : Constant
Bit rate : 705.6 Kbps
Channel(s) : 1 channel
Sampling rate : 44.1 KHz
Bit depth : 16 bits
Stream size : 335 KiB (100%)

 

 

 

General

Complete name : R:\GAMES\RepackGames.Net – Conquest of Elysium 4\Conquest of Elysium 4\New folder\data\argele.smp
File size : 13.9 KiB

 

 

 

General

Complete name : R:\GAMES\RepackGames.Net – Conquest of Elysium 4\Conquest of Elysium 4\New folder\data\arrow.smp
File size : 2.90 KiB

 

 

 

General

Complete name : R:\GAMES\RepackGames.Net – Conquest of Elysium 4\Conquest of Elysium 4\New folder\data\bass5.smp
File size : 3.00 KiB

 

 

 

General

Complete name : R:\GAMES\RepackGames.Net – Conquest of Elysium 4\Conquest of Elysium 4\New folder\data\bassclick.wav
Format : Wave
File size : 14.7 KiB
Duration : 339ms
Overall bit rate mode : Constant
Overall bit rate : 354 Kbps

 

Audio

Format : PCM
Format settings, Endianness : Little
Format settings, Sign : Signed
Codec ID : 1
Duration : 339ms
Bit rate mode : Constant
Bit rate : 352.8 Kbps
Channel(s) : 1 channel
Sampling rate : 22.05 KHz
Bit depth : 16 bits
Stream size : 14.6 KiB (100%)

 

 

 

General

Complete name : R:\GAMES\RepackGames.Net – Conquest of Elysium 4\Conquest of Elysium 4\New folder\data\batclouds.tga
Format : TGA
Format version : Version 2
File size : 1.95 MiB

 

Image

Format : RLE
Format/Info : Run-length encoding
Codec ID : 10
Width : 1 024 pixels
Height : 1 024 pixels
Color space : RGB
Bit depth : 24 bits

 

 

 

General

Complete name : R:\GAMES\RepackGames.Net – Conquest of Elysium 4\Conquest of Elysium 4\New folder\data\batflames.tga
Format : TGA
Format version : Version 2
File size : 2.96 MiB

 

Image

Format : RLE
Format/Info : Run-length encoding
Codec ID : 10
Width : 1 024 pixels
Height : 1 024 pixels
Color space : RGB
Bit depth : 24 bits

 

 

 

General

Complete name : R:\GAMES\RepackGames.Net – Conquest of Elysium 4\Conquest of Elysium 4\New folder\data\batgrass.tga
Format : TGA
Format version : Version 2
File size : 4.00 MiB

 

Image

Format : RLE
Format/Info : Run-length encoding
Codec ID : 10
Width : 1 024 pixels
Height : 1 024 pixels
Color space : RGB
Bit depth : 32 bits

 

 

 

General

Complete name : R:\GAMES\RepackGames.Net – Conquest of Elysium 4\Conquest of Elysium 4\New folder\data\batlava.tga
Format : TGA
Format version : Version 2
File size : 3.98 MiB

 

Image

Format : RLE
Format/Info : Run-length encoding
Codec ID : 10
Width : 1 024 pixels
Height : 1 024 pixels
Color space : RGB
Bit depth : 32 bits

 

 

 

General

Complete name : R:\GAMES\RepackGames.Net – Conquest of Elysium 4\Conquest of Elysium 4\New folder\data\batmount.tga
Format : TGA
Format version : Version 2
File size : 2.89 MiB

 

Image

Format : RLE
Format/Info : Run-length encoding
Codec ID : 10
Width : 1 024 pixels
Height : 1 024 pixels
Color space : RGB
Bit depth : 24 bits

 

 

 

General

Complete name : R:\GAMES\RepackGames.Net – Conquest of Elysium 4\Conquest of Elysium 4\New folder\data\batsand.tga
Format : TGA
Format version : Version 2
File size : 753 KiB

 

Image

Format : RLE
Format/Info : Run-length encoding
Codec ID : 10
Width : 512 pixels
Height : 512 pixels
Color space : RGB
Bit depth : 24 bits

 

 

 

General

Complete name : R:\GAMES\RepackGames.Net – Conquest of Elysium 4\Conquest of Elysium 4\New folder\data\batsavanna.tga
Format : TGA
Format version : Version 2
File size : 1.00 MiB

 

Image

Format : RLE
Format/Info : Run-length encoding
Codec ID : 10
Width : 512 pixels
Height : 512 pixels
Color space : RGB
Bit depth : 32 bits

 

 

 

General

Complete name : R:\GAMES\RepackGames.Net – Conquest of Elysium 4\Conquest of Elysium 4\New folder\data\batsnow.tga
Format : TGA
Format version : Version 2
File size : 634 KiB

 

Image

Format : RLE
Format/Info : Run-length encoding
Codec ID : 10
Width : 512 pixels
Height : 512 pixels
Color space : RGB
Bit depth : 24 bits

 

 

 

General

Complete name : R:\GAMES\RepackGames.Net – Conquest of Elysium 4\Conquest of Elysium 4\New folder\data\batvoid.tga
Format : TGA
Format version : Version 2
File size : 2.99 MiB

 

Image

Format : RLE
Format/Info : Run-length encoding
Codec ID : 10
Width : 1 024 pixels
Height : 1 024 pixels
Color space : RGB
Bit depth : 24 bits

 

 

 

General

Complete name : R:\GAMES\RepackGames.Net – Conquest of Elysium 4\Conquest of Elysium 4\New folder\data\bench
File size : 5.80 MiB

 

 

 

General

Complete name : R:\GAMES\RepackGames.Net – Conquest of Elysium 4\Conquest of Elysium 4\New folder\data\bird2.smp
File size : 32.4 KiB

 

 

 

General

Complete name : R:\GAMES\RepackGames.Net – Conquest of Elysium 4\Conquest of Elysium 4\New folder\data\blasror.smp
File size : 3.13 KiB

 

 

 

General

Complete name : R:\GAMES\RepackGames.Net – Conquest of Elysium 4\Conquest of Elysium 4\New folder\data\blast.trs
File size : 22.6 KiB

 

 

 

General

Complete name : R:\GAMES\RepackGames.Net – Conquest of Elysium 4\Conquest of Elysium 4\New folder\data\bomb.sw
File size : 275 KiB

 

 

 

General

Complete name : R:\GAMES\RepackGames.Net – Conquest of Elysium 4\Conquest of Elysium 4\New folder\data\bubble.sw
File size : 16.9 KiB

 

 

 

General

Complete name : R:\GAMES\RepackGames.Net – Conquest of Elysium 4\Conquest of Elysium 4\New folder\data\catapult.wav
Format : Wave
File size : 47.3 KiB
Duration : 1s 97ms
Overall bit rate mode : Constant
Overall bit rate : 353 Kbps

 

Audio

Format : PCM
Format settings, Endianness : Little
Format settings, Sign : Signed
Codec ID : 1
Duration : 1s 97ms
Bit rate mode : Constant
Bit rate : 352.8 Kbps
Channel(s) : 1 channel
Sampling rate : 22.05 KHz
Bit depth : 16 bits
Stream size : 47.3 KiB (100%)

 

 

 

General

Complete name : R:\GAMES\RepackGames.Net – Conquest of Elysium 4\Conquest of Elysium 4\New folder\data\chyme.smp
File size : 21.3 KiB

 

 

 

General

Complete name : R:\GAMES\RepackGames.Net – Conquest of Elysium 4\Conquest of Elysium 4\New folder\data\clash.wav
Format : Wave
File size : 24.8 KiB
Duration : 574ms
Overall bit rate mode : Constant
Overall bit rate : 354 Kbps

 

Audio

Format : PCM
Format settings, Endianness : Little
Format settings, Sign : Signed
Codec ID : 1
Duration : 574ms
Bit rate mode : Constant
Bit rate : 352.8 Kbps
Channel(s) : 1 channel
Sampling rate : 22.05 KHz
Bit depth : 16 bits
Stream size : 24.8 KiB (100%)

 

 

 

General

Complete name : R:\GAMES\RepackGames.Net – Conquest of Elysium 4\Conquest of Elysium 4\New folder\data\click02.smp
File size : 481 Bytes

 

 

 

General

Complete name : R:\GAMES\RepackGames.Net – Conquest of Elysium 4\Conquest of Elysium 4\New folder\data\click12.smp
File size : 402 Bytes

 

 

 

General

Complete name : R:\GAMES\RepackGames.Net – Conquest of Elysium 4\Conquest of Elysium 4\New folder\data\cloud.tga
Format : TGA
Format version : Version 2
File size : 63.4 MiB

 

Image

Format : RLE
Format/Info : Run-length encoding
Codec ID : 10
Width : 4 096 pixels
Height : 4 096 pixels
Color space : RGB
Bit depth : 32 bits

 

 

 

General

Complete name : R:\GAMES\RepackGames.Net – Conquest of Elysium 4\Conquest of Elysium 4\New folder\data\club.smp
File size : 2.83 KiB

 

 

 

General

Complete name : R:\GAMES\RepackGames.Net – Conquest of Elysium 4\Conquest of Elysium 4\New folder\data\coe4icon.bmp
Format : Bitmap
File size : 17.1 KiB

 

Image

Format : RGB
Width : 128 pixels
Height : 128 pixels
Color space : RGB
Bit depth : 8 bits

 

 

 

General

Complete name : R:\GAMES\RepackGames.Net – Conquest of Elysium 4\Conquest of Elysium 4\New folder\data\coe4icon.icns
File size : 34.0 KiB

 

 

 

General

Complete name : R:\GAMES\RepackGames.Net – Conquest of Elysium 4\Conquest of Elysium 4\New folder\data\coe4icon.ico
Format : ICO
File size : 86.8 KiB

 

Image #1

Width : 32 pixels
Height : 32 pixels
Bit depth : 32 bits
Stream size : 4.16 KiB (5%)

 

Image #2

Width : 64 pixels
Height : 64 pixels
Bit depth : 32 bits
Stream size : 16.5 KiB (19%)

 

Image #3

Width : 128 pixels
Height : 128 pixels
Bit depth : 32 bits
Stream size : 66.0 KiB (76%)

 

 

 

General

Complete name : R:\GAMES\RepackGames.Net – Conquest of Elysium 4\Conquest of Elysium 4\New folder\data\coe4icon.png
Format : PNG
Format/Info : Portable Network Graphic
File size : 10.6 KiB

 

Image

Format : PNG
Format/Info : Portable Network Graphic
Width : 128 pixels
Height : 128 pixels
Bit depth : 32 bits
Compression mode : Lossless
Stream size : 10.6 KiB (100%)

 

 

 

General

Complete name : R:\GAMES\RepackGames.Net – Conquest of Elysium 4\Conquest of Elysium 4\New folder\data\coe4icon32.png
Format : PNG
Format/Info : Portable Network Graphic
File size : 2.09 KiB

 

Image

Format : PNG
Format/Info : Portable Network Graphic
Width : 32 pixels
Height : 32 pixels
Bit depth : 32 bits
Compression mode : Lossless
Stream size : 2.09 KiB (100%)

 

 

 

General

Complete name : R:\GAMES\RepackGames.Net – Conquest of Elysium 4\Conquest of Elysium 4\New folder\data\crossb.smp
File size : 2.71 KiB

 

 

 

General

Complete name : R:\GAMES\RepackGames.Net – Conquest of Elysium 4\Conquest of Elysium 4\New folder\data\death.tga
Format : TGA
Format version : Version 2
File size : 2.47 MiB

 

Image

Format : RLE
Format/Info : Run-length encoding
Codec ID : 10
Width : 1 024 pixels
Height : 1 024 pixels
Color space : RGB
Bit depth : 32 bits

 

 

 

General

Complete name : R:\GAMES\RepackGames.Net – Conquest of Elysium 4\Conquest of Elysium 4\New folder\data\digrydoo.smp
File size : 12.5 KiB

 

 

 

General

Complete name : R:\GAMES\RepackGames.Net – Conquest of Elysium 4\Conquest of Elysium 4\New folder\data\dland.smp
File size : 4.86 KiB

 

 

 

General

Complete name : R:\GAMES\RepackGames.Net – Conquest of Elysium 4\Conquest of Elysium 4\New folder\data\donk.smp
File size : 3.72 KiB

 

 

 

General

Complete name : R:\GAMES\RepackGames.Net – Conquest of Elysium 4\Conquest of Elysium 4\New folder\data\drain.smp
File size : 7.36 KiB

 

 

 

General

Complete name : R:\GAMES\RepackGames.Net – Conquest of Elysium 4\Conquest of Elysium 4\New folder\data\drums.smp
File size : 7.24 KiB

 

 

 

General

Complete name : R:\GAMES\RepackGames.Net – Conquest of Elysium 4\Conquest of Elysium 4\New folder\data\earth.smp
File size : 9.21 KiB

 

 

 

General

Complete name : R:\GAMES\RepackGames.Net – Conquest of Elysium 4\Conquest of Elysium 4\New folder\data\echo.wav
Format : Wave
File size : 101 KiB
Duration : 2s 351ms
Overall bit rate mode : Constant
Overall bit rate : 353 Kbps

 

Audio

Format : PCM
Format settings, Endianness : Little
Format settings, Sign : Signed
Codec ID : 1
Duration : 2s 351ms
Bit rate mode : Constant
Bit rate : 352.8 Kbps
Channel(s) : 1 channel
Sampling rate : 22.05 KHz
Bit depth : 16 bits
Stream size : 101 KiB (100%)

 

 

 

General

Complete name : R:\GAMES\RepackGames.Net – Conquest of Elysium 4\Conquest of Elysium 4\New folder\data\eerie.wav
Format : Wave
File size : 392 KiB
Duration : 9s 90ms
Overall bit rate mode : Constant
Overall bit rate : 353 Kbps

 

Audio

Format : PCM
Format settings, Endianness : Little
Format settings, Sign : Signed
Codec ID : 1
Duration : 9s 90ms
Bit rate mode : Constant
Bit rate : 352.8 Kbps
Channel(s) : 1 channel
Sampling rate : 22.05 KHz
Bit depth : 16 bits
Stream size : 392 KiB (100%)

 

 

 

General

Complete name : R:\GAMES\RepackGames.Net – Conquest of Elysium 4\Conquest of Elysium 4\New folder\data\el.smp
File size : 7.45 KiB

 

 

 

General

Complete name : R:\GAMES\RepackGames.Net – Conquest of Elysium 4\Conquest of Elysium 4\New folder\data\elefant.smp
File size : 22.8 KiB

 

 

 

General

Complete name : R:\GAMES\RepackGames.Net – Conquest of Elysium 4\Conquest of Elysium 4\New folder\data\emuller.smp
File size : 3.87 KiB

 

 

 

General

Complete name : R:\GAMES\RepackGames.Net – Conquest of Elysium 4\Conquest of Elysium 4\New folder\data\energy.wav
Format : Wave
File size : 143 KiB
Duration : 3s 317ms
Overall bit rate mode : Constant
Overall bit rate : 353 Kbps

 

Audio

Format : PCM
Format settings, Endianness : Little
Format settings, Sign : Signed
Codec ID : 1
Duration : 3s 317ms
Bit rate mode : Constant
Bit rate : 352.8 Kbps
Channel(s) : 1 channel
Sampling rate : 22.05 KHz
Bit depth : 16 bits
Stream size : 143 KiB (100%)

 

 

 

General

Complete name : R:\GAMES\RepackGames.Net – Conquest of Elysium 4\Conquest of Elysium 4\New folder\data\expl_white.tga
Format : TGA
Format version : Version 2
File size : 55.7 KiB

 

Image

Format : RLE
Format/Info : Run-length encoding
Codec ID : 10
Width : 128 pixels
Height : 128 pixels
Color space : RGB
Bit depth : 32 bits

 

 

 

General

Complete name : R:\GAMES\RepackGames.Net – Conquest of Elysium 4\Conquest of Elysium 4\New folder\data\fear.smp
File size : 33.3 KiB

 

 

 

General

Complete name : R:\GAMES\RepackGames.Net – Conquest of Elysium 4\Conquest of Elysium 4\New folder\data\fire.smp
File size : 33.4 KiB

 

 

 

General

Complete name : R:\GAMES\RepackGames.Net – Conquest of Elysium 4\Conquest of Elysium 4\New folder\data\font.trs
File size : 5.85 KiB

 

 

 

General

Complete name : R:\GAMES\RepackGames.Net – Conquest of Elysium 4\Conquest of Elysium 4\New folder\data\frog.wav
Format : Wave
File size : 40.5 KiB
Duration : 940ms
Overall bit rate mode : Constant
Overall bit rate : 353 Kbps

 

Audio

Format : PCM
Format settings, Endianness : Little
Format settings, Sign : Signed
Codec ID : 1
Duration : 940ms
Bit rate mode : Constant
Bit rate : 352.8 Kbps
Channel(s) : 1 channel
Sampling rate : 22.05 KHz
Bit depth : 16 bits
Stream size : 40.5 KiB (100%)

 

 

 

General

Complete name : R:\GAMES\RepackGames.Net – Conquest of Elysium 4\Conquest of Elysium 4\New folder\data\fswish.wav
Format : Wave
File size : 25.9 KiB
Duration : 600ms
Overall bit rate mode : Constant
Overall bit rate : 354 Kbps

 

Audio

Format : PCM
Format settings, Endianness : Little
Format settings, Sign : Signed
Codec ID : 1
Duration : 600ms
Bit rate mode : Constant
Bit rate : 352.8 Kbps
Channel(s) : 1 channel
Sampling rate : 22.05 KHz
Bit depth : 16 bits
Stream size : 25.9 KiB (100%)

 

 

 

General

Complete name : R:\GAMES\RepackGames.Net – Conquest of Elysium 4\Conquest of Elysium 4\New folder\data\f_death.sw
File size : 33.0 KiB

 

 

 

General

Complete name : R:\GAMES\RepackGames.Net – Conquest of Elysium 4\Conquest of Elysium 4\New folder\data\f_death2.sw
File size : 38.9 KiB

 

 

 

General

Complete name : R:\GAMES\RepackGames.Net – Conquest of Elysium 4\Conquest of Elysium 4\New folder\data\game_click.sw
File size : 11.9 KiB

 

 

 

General

Complete name : R:\GAMES\RepackGames.Net – Conquest of Elysium 4\Conquest of Elysium 4\New folder\data\game_highlight.sw
File size : 12.2 KiB

 

 

 

General

Complete name : R:\GAMES\RepackGames.Net – Conquest of Elysium 4\Conquest of Elysium 4\New folder\data\godlat.smp
File size : 20.8 KiB

 

 

 

General

Complete name : R:\GAMES\RepackGames.Net – Conquest of Elysium 4\Conquest of Elysium 4\New folder\data\gris.smp
File size : 13.4 KiB

 

 

 

General

Complete name : R:\GAMES\RepackGames.Net – Conquest of Elysium 4\Conquest of Elysium 4\New folder\data\growl.smp
File size : 5.71 KiB

 

 

 

General

Complete name : R:\GAMES\RepackGames.Net – Conquest of Elysium 4\Conquest of Elysium 4\New folder\data\guibar.tga
Format : TGA
Format version : Version 2
File size : 6.17 KiB

 

Image

Format : RLE
Format/Info : Run-length encoding
Codec ID : 10
Width : 64 pixels
Height : 64 pixels
Color space : RGB
Bit depth : 32 bits

 

 

 

General

Complete name : R:\GAMES\RepackGames.Net – Conquest of Elysium 4\Conquest of Elysium 4\New folder\data\guibar_dark.tga
Format : TGA
Format version : Version 2
File size : 6.06 KiB

 

Image

Format : RLE
Format/Info : Run-length encoding
Codec ID : 10
Width : 64 pixels
Height : 64 pixels
Color space : RGB
Bit depth : 32 bits

 

 

 

General

Complete name : R:\GAMES\RepackGames.Net – Conquest of Elysium 4\Conquest of Elysium 4\New folder\data\guiborder.tga
Format : TGA
Format version : Version 2
File size : 3.13 MiB

 

Image

Format : RLE
Format/Info : Run-length encoding
Codec ID : 10
Width : 1 024 pixels
Height : 1 024 pixels
Color space : RGB
Bit depth : 32 bits

 

 

 

General

Complete name : R:\GAMES\RepackGames.Net – Conquest of Elysium 4\Conquest of Elysium 4\New folder\data\guiborder2.tga
Format : TGA
Format version : Version 2
File size : 900 KiB

 

Image

Format : RLE
Format/Info : Run-length encoding
Codec ID : 10
Width : 512 pixels
Height : 512 pixels
Color space : RGB
Bit depth : 32 bits

 

 

 

General

Complete name : R:\GAMES\RepackGames.Net – Conquest of Elysium 4\Conquest of Elysium 4\New folder\data\guiborder3.tga
Format : TGA
Format version : Version 2
File size : 28.1 KiB

 

Image

Format : RLE
Format/Info : Run-length encoding
Codec ID : 10
Width : 512 pixels
Height : 512 pixels
Color space : RGB
Bit depth : 32 bits

 

 

 

General

Complete name : R:\GAMES\RepackGames.Net – Conquest of Elysium 4\Conquest of Elysium 4\New folder\data\guiborder4.tga
Format : TGA
Format version : Version 2
File size : 3.00 KiB

 

Image

Format : RLE
Format/Info : Run-length encoding
Codec ID : 10
Width : 256 pixels
Height : 64 pixels
Color space : RGB
Bit depth : 32 bits

 

 

 

General

Complete name : R:\GAMES\RepackGames.Net – Conquest of Elysium 4\Conquest of Elysium 4\New folder\data\guiborder_square.tga
Format : TGA
Format version : Version 2
File size : 732 KiB

 

Image

Format : RLE
Format/Info : Run-length encoding
Codec ID : 10
Width : 512 pixels
Height : 512 pixels
Color space : RGB
Bit depth : 32 bits

 

 

 

General

Complete name : R:\GAMES\RepackGames.Net – Conquest of Elysium 4\Conquest of Elysium 4\New folder\data\guiborder_thin.tga
Format : TGA
Format version : Version 2
File size : 740 KiB

 

Image

Format : RLE
Format/Info : Run-length encoding
Codec ID : 10
Width : 512 pixels
Height : 512 pixels
Color space : RGB
Bit depth : 32 bits

 

 

 

General

Complete name : R:\GAMES\RepackGames.Net – Conquest of Elysium 4\Conquest of Elysium 4\New folder\data\guifont.ttf
File size : 1.49 MiB

 

 

 

General

Complete name : R:\GAMES\RepackGames.Net – Conquest of Elysium 4\Conquest of Elysium 4\New folder\data\guifont_fancy.ttf
File size : 70.1 KiB

 

 

 

General

Complete name : R:\GAMES\RepackGames.Net – Conquest of Elysium 4\Conquest of Elysium 4\New folder\data\guifont_texty.ttf
File size : 149 KiB

 

 

 

General

Complete name : R:\GAMES\RepackGames.Net – Conquest of Elysium 4\Conquest of Elysium 4\New folder\data\guihbar.tga
Format : TGA
Format version : Version 2
File size : 2.19 KiB

 

Image

Format : RLE
Format/Info : Run-length encoding
Codec ID : 10
Width : 32 pixels
Height : 32 pixels
Color space : RGB
Bit depth : 24 bits

 

 

 

General

Complete name : R:\GAMES\RepackGames.Net – Conquest of Elysium 4\Conquest of Elysium 4\New folder\data\guisbar.tga
Format : TGA
Format version : Version 2
File size : 12.4 KiB

 

Image

Format : RLE
Format/Info : Run-length encoding
Codec ID : 10
Width : 64 pixels
Height : 64 pixels
Color space : RGB
Bit depth : 32 bits

 

 

 

General

Complete name : R:\GAMES\RepackGames.Net – Conquest of Elysium 4\Conquest of Elysium 4\New folder\data\guititle.tga
Format : TGA
Format version : Version 2
File size : 61.0 KiB

 

Image

Format : RLE
Format/Info : Run-length encoding
Codec ID : 10
Width : 256 pixels
Height : 64 pixels
Color space : RGB
Bit depth : 32 bits

 

 

 

General

Complete name : R:\GAMES\RepackGames.Net – Conquest of Elysium 4\Conquest of Elysium 4\New folder\data\harpa.smp
File size : 15.8 KiB

 

 

 

General

Complete name : R:\GAMES\RepackGames.Net – Conquest of Elysium 4\Conquest of Elysium 4\New folder\data\hit1.smp
File size : 3.67 KiB

 

 

 

General

Complete name : R:\GAMES\RepackGames.Net – Conquest of Elysium 4\Conquest of Elysium 4\New folder\data\hit2.smp
File size : 2.45 KiB

 

 

 

General

Complete name : R:\GAMES\RepackGames.Net – Conquest of Elysium 4\Conquest of Elysium 4\New folder\data\hit3.smp
File size : 2.20 KiB

 

 

 

General

Complete name : R:\GAMES\RepackGames.Net – Conquest of Elysium 4\Conquest of Elysium 4\New folder\data\hit4.smp
File size : 2.45 KiB

 

 

 

General

Complete name : R:\GAMES\RepackGames.Net – Conquest of Elysium 4\Conquest of Elysium 4\New folder\data\hit5.smp
File size : 2.20 KiB

 

 

 

General

Complete name : R:\GAMES\RepackGames.Net – Conquest of Elysium 4\Conquest of Elysium 4\New folder\data\hit_impact.sw
File size : 22.6 KiB

 

 

 

General

Complete name : R:\GAMES\RepackGames.Net – Conquest of Elysium 4\Conquest of Elysium 4\New folder\data\horn.sw
File size : 115 KiB

 

 

 

General

Complete name : R:\GAMES\RepackGames.Net – Conquest of Elysium 4\Conquest of Elysium 4\New folder\data\howl.sw
File size : 72.0 KiB

 

 

 

General

Complete name : R:\GAMES\RepackGames.Net – Conquest of Elysium 4\Conquest of Elysium 4\New folder\data\ill_logo.tga
Format : TGA
Format version : Version 2
File size : 63.2 KiB

 

Image

Format : RLE
Format/Info : Run-length encoding
Codec ID : 10
Width : 512 pixels
Height : 256 pixels
Color space : RGB
Bit depth : 32 bits

 

 

 

General

Complete name : R:\GAMES\RepackGames.Net – Conquest of Elysium 4\Conquest of Elysium 4\New folder\data\incorp.sw
File size : 54.5 KiB

 

 

 

General

Complete name : R:\GAMES\RepackGames.Net – Conquest of Elysium 4\Conquest of Elysium 4\New folder\data\iron.sw
File size : 51.8 KiB

 

 

 

General

Complete name : R:\GAMES\RepackGames.Net – Conquest of Elysium 4\Conquest of Elysium 4\New folder\data\iron.wav
Format : Wave
File size : 29.3 KiB
Duration : 679ms
Overall bit rate mode : Constant
Overall bit rate : 353 Kbps

 

Audio

Format : PCM
Format settings, Endianness : Little
Format settings, Sign : Signed
Codec ID : 1
Duration : 679ms
Bit rate mode : Constant
Bit rate : 352.8 Kbps
Channel(s) : 1 channel
Sampling rate : 22.05 KHz
Bit depth : 16 bits
Stream size : 29.3 KiB (100%)

 

 

 

General

Complete name : R:\GAMES\RepackGames.Net – Conquest of Elysium 4\Conquest of Elysium 4\New folder\data\item.trs
Format : MPEG Audio
File size : 404 KiB
Overall bit rate mode : Variable

 

Audio

Format : MPEG Audio
Format version : Version 1
Format profile : Layer 1
Mode extension : Intensity Stereo
Emphasis : CCITT
Bit rate mode : Variable
Channel(s) : 2 channels
Sampling rate : 44.1 KHz
Compression mode : Lossy
Stream size : 83.0 KiB (21%)

 

 

 

General

Complete name : R:\GAMES\RepackGames.Net – Conquest of Elysium 4\Conquest of Elysium 4\New folder\data\javelin.smp
File size : 791 Bytes

 

 

 

General

Complete name : R:\GAMES\RepackGames.Net – Conquest of Elysium 4\Conquest of Elysium 4\New folder\data\klapp.smp
File size : 19.8 KiB

 

 

 

General

Complete name : R:\GAMES\RepackGames.Net – Conquest of Elysium 4\Conquest of Elysium 4\New folder\data\knife1.wav
Format : Wave
File size : 25.9 KiB
Duration : 600ms
Overall bit rate mode : Constant
Overall bit rate : 354 Kbps

 

Audio

Format : PCM
Format settings, Endianness : Little
Format settings, Sign : Signed
Codec ID : 1
Duration : 600ms
Bit rate mode : Constant
Bit rate : 352.8 Kbps
Channel(s) : 1 channel
Sampling rate : 22.05 KHz
Bit depth : 16 bits
Stream size : 25.9 KiB (100%)

 

 

 

General

Complete name : R:\GAMES\RepackGames.Net – Conquest of Elysium 4\Conquest of Elysium 4\New folder\data\knife2.wav
Format : Wave
File size : 16.9 KiB
Duration : 391ms
Overall bit rate mode : Constant
Overall bit rate : 354 Kbps

 

Audio

Format : PCM
Format settings, Endianness : Little
Format settings, Sign : Signed
Codec ID : 1
Duration : 391ms
Bit rate mode : Constant
Bit rate : 352.8 Kbps
Channel(s) : 1 channel
Sampling rate : 22.05 KHz
Bit depth : 16 bits
Stream size : 16.9 KiB (100%)

 

 

 

General

Complete name : R:\GAMES\RepackGames.Net – Conquest of Elysium 4\Conquest of Elysium 4\New folder\data\kor.smp
File size : 69.4 KiB

 

 

 

General

Complete name : R:\GAMES\RepackGames.Net – Conquest of Elysium 4\Conquest of Elysium 4\New folder\data\laf.smp
File size : 6.69 KiB

 

 

 

General

Complete name : R:\GAMES\RepackGames.Net – Conquest of Elysium 4\Conquest of Elysium 4\New folder\data\laugh1.smp
File size : 19.7 KiB

 

 

 

General

Complete name : R:\GAMES\RepackGames.Net – Conquest of Elysium 4\Conquest of Elysium 4\New folder\data\laugh2.smp
File size : 20.2 KiB

 

 

 

General

Complete name : R:\GAMES\RepackGames.Net – Conquest of Elysium 4\Conquest of Elysium 4\New folder\data\laughter.sw
File size : 178 KiB

 

 

 

General

Complete name : R:\GAMES\RepackGames.Net – Conquest of Elysium 4\Conquest of Elysium 4\New folder\data\leaves.tga
Format : TGA
Format version : Version 2
File size : 2.83 MiB

 

Image

Format : RLE
Format/Info : Run-length encoding
Codec ID : 10
Width : 1 024 pixels
Height : 1 024 pixels
Color space : RGB
Bit depth : 32 bits

 

 

 

General

Complete name : R:\GAMES\RepackGames.Net – Conquest of Elysium 4\Conquest of Elysium 4\New folder\data\lion.sw
File size : 48.0 KiB

 

 

 

General

Complete name : R:\GAMES\RepackGames.Net – Conquest of Elysium 4\Conquest of Elysium 4\New folder\data\lion2.sw
File size : 53.4 KiB

 

 

 

General

Complete name : R:\GAMES\RepackGames.Net – Conquest of Elysium 4\Conquest of Elysium 4\New folder\data\logo.tga
Format : TGA
Format version : Version 2
File size : 614 KiB

 

Image

Format : RLE
Format/Info : Run-length encoding
Codec ID : 10
Width : 1 024 pixels
Height : 512 pixels
Color space : RGB
Bit depth : 32 bits

 

 

 

General

Complete name : R:\GAMES\RepackGames.Net – Conquest of Elysium 4\Conquest of Elysium 4\New folder\data\magic.smp
File size : 3.00 KiB

 

 

 

General

Complete name : R:\GAMES\RepackGames.Net – Conquest of Elysium 4\Conquest of Elysium 4\New folder\data\mapash.tga
Format : TGA
Format version : Version 2
File size : 256 KiB

 

Image

Format : RLE
Format/Info : Run-length encoding
Codec ID : 10
Width : 256 pixels
Height : 256 pixels
Color space : RGB
Bit depth : 32 bits

 

 

 

General

Complete name : R:\GAMES\RepackGames.Net – Conquest of Elysium 4\Conquest of Elysium 4\New folder\data\mapblacksea.tga
Format : TGA
Format version : Version 2
File size : 604 KiB

 

Image

Format : RLE
Format/Info : Run-length encoding
Codec ID : 10
Width : 512 pixels
Height : 512 pixels
Color space : RGB
Bit depth : 24 bits

 

 

 

General

Complete name : R:\GAMES\RepackGames.Net – Conquest of Elysium 4\Conquest of Elysium 4\New folder\data\mapcave.tga
Format : TGA
Format version : Version 2
File size : 4.00 MiB

 

Image

Format : RLE
Format/Info : Run-length encoding
Codec ID : 10
Width : 1 024 pixels
Height : 1 024 pixels
Color space : RGB
Bit depth : 32 bits

 

 

 

General

Complete name : R:\GAMES\RepackGames.Net – Conquest of Elysium 4\Conquest of Elysium 4\New folder\data\mapcloud.tga
Format : TGA
Format version : Version 2
File size : 2.24 MiB

 

Image

Format : RLE
Format/Info : Run-length encoding
Codec ID : 10
Width : 1 024 pixels
Height : 1 024 pixels
Color space : RGB
Bit depth : 24 bits

 

 

 

General

Complete name : R:\GAMES\RepackGames.Net – Conquest of Elysium 4\Conquest of Elysium 4\New folder\data\mapdeep.tga
Format : TGA
Format version : Version 2
File size : 769 KiB

 

Image

Format : RLE
Format/Info : Run-length encoding
Codec ID : 10
Width : 512 pixels
Height : 512 pixels
Color space : RGB
Bit depth : 24 bits

 

 

 

General

Complete name : R:\GAMES\RepackGames.Net – Conquest of Elysium 4\Conquest of Elysium 4\New folder\data\mapflames.tga
Format : TGA
Format version : Version 2
File size : 2.99 MiB

 

Image

Format : RLE
Format/Info : Run-length encoding
Codec ID : 10
Width : 1 024 pixels
Height : 1 024 pixels
Color space : RGB
Bit depth : 24 bits

 

 

 

General

Complete name : R:\GAMES\RepackGames.Net – Conquest of Elysium 4\Conquest of Elysium 4\New folder\data\mapfrozen.tga
Format : TGA
Format version : Version 2
File size : 3.00 MiB

 

Image

Format : RLE
Format/Info : Run-length encoding
Codec ID : 10
Width : 1 024 pixels
Height : 1 024 pixels
Color space : RGB
Bit depth : 24 bits

 

 

 

General

Complete name : R:\GAMES\RepackGames.Net – Conquest of Elysium 4\Conquest of Elysium 4\New folder\data\mapgrass.tga
Format : TGA
Format version : Version 2
File size : 961 KiB

 

Image

Format : RLE
Format/Info : Run-length encoding
Codec ID : 10
Width : 512 pixels
Height : 512 pixels
Color space : RGB
Bit depth : 32 bits

 

 

 

General

Complete name : R:\GAMES\RepackGames.Net – Conquest of Elysium 4\Conquest of Elysium 4\New folder\data\maplava.tga
Format : TGA
Format version : Version 2
File size : 769 KiB

 

Image

Format : RLE
Format/Info : Run-length encoding
Codec ID : 10
Width : 512 pixels
Height : 512 pixels
Color space : RGB
Bit depth : 24 bits

 

 

 

General

Complete name : R:\GAMES\RepackGames.Net – Conquest of Elysium 4\Conquest of Elysium 4\New folder\data\mapsand.tga
Format : TGA
Format version : Version 2
File size : 758 KiB

 

Image

Format : RLE
Format/Info : Run-length encoding
Codec ID : 10
Width : 512 pixels
Height : 512 pixels
Color space : RGB
Bit depth : 24 bits

 

 

 

General

Complete name : R:\GAMES\RepackGames.Net – Conquest of Elysium 4\Conquest of Elysium 4\New folder\data\mapsavanna.tga
Format : TGA
Format version : Version 2
File size : 1.00 MiB

 

Image

Format : RLE
Format/Info : Run-length encoding
Codec ID : 10
Width : 512 pixels
Height : 512 pixels
Color space : RGB
Bit depth : 32 bits

 

 

 

General

Complete name : R:\GAMES\RepackGames.Net – Conquest of Elysium 4\Conquest of Elysium 4\New folder\data\mapshadeland.tga
Format : TGA
Format version : Version 2
File size : 960 KiB

 

Image

Format : RLE
Format/Info : Run-length encoding
Codec ID : 10
Width : 512 pixels
Height : 512 pixels
Color space : RGB
Bit depth : 32 bits

 

 

 

General

Complete name : R:\GAMES\RepackGames.Net – Conquest of Elysium 4\Conquest of Elysium 4\New folder\data\mapshadesavanna.tga
Format : TGA
Format version : Version 2
File size : 1 023 KiB

 

Image

Format : RLE
Format/Info : Run-length encoding
Codec ID : 10
Width : 512 pixels
Height : 512 pixels
Color space : RGB
Bit depth : 32 bits

 

 

 

General

Complete name : R:\GAMES\RepackGames.Net – Conquest of Elysium 4\Conquest of Elysium 4\New folder\data\mapsnow.tga
Format : TGA
Format version : Version 2
File size : 652 KiB

 

Image

Format : RLE
Format/Info : Run-length encoding
Codec ID : 10
Width : 512 pixels
Height : 512 pixels
Color space : RGB
Bit depth : 24 bits

 

 

 

General

Complete name : R:\GAMES\RepackGames.Net – Conquest of Elysium 4\Conquest of Elysium 4\New folder\data\mapstone.tga
Format : TGA
Format version : Version 2
File size : 257 KiB

 

Image

Format : RLE
Format/Info : Run-length encoding
Codec ID : 10
Width : 256 pixels
Height : 256 pixels
Color space : RGB
Bit depth : 32 bits

 

 

 

General

Complete name : R:\GAMES\RepackGames.Net – Conquest of Elysium 4\Conquest of Elysium 4\New folder\data\mapwaste.tga
Format : TGA
Format version : Version 2
File size : 1.00 MiB

 

Image

Format : RLE
Format/Info : Run-length encoding
Codec ID : 10
Width : 512 pixels
Height : 512 pixels
Color space : RGB
Bit depth : 32 bits

 

 

 

General

Complete name : R:\GAMES\RepackGames.Net – Conquest of Elysium 4\Conquest of Elysium 4\New folder\data\mapwater.tga
Format : TGA
Format version : Version 2
File size : 1 022 KiB

 

Image

Format : RLE
Format/Info : Run-length encoding
Codec ID : 10
Width : 512 pixels
Height : 512 pixels
Color space : RGB
Bit depth : 32 bits

 

 

 

General

Complete name : R:\GAMES\RepackGames.Net – Conquest of Elysium 4\Conquest of Elysium 4\New folder\data\megabless.sw
File size : 164 KiB

 

 

 

General

Complete name : R:\GAMES\RepackGames.Net – Conquest of Elysium 4\Conquest of Elysium 4\New folder\data\misc.trs
File size : 687 KiB

 

 

 

General

Complete name : R:\GAMES\RepackGames.Net – Conquest of Elysium 4\Conquest of Elysium 4\New folder\data\miss.smp
File size : 2.77 KiB

 

 

 

General

Complete name : R:\GAMES\RepackGames.Net – Conquest of Elysium 4\Conquest of Elysium 4\New folder\data\monster.trs
File size : 5.83 MiB

 

 

 

General

Complete name : R:\GAMES\RepackGames.Net – Conquest of Elysium 4\Conquest of Elysium 4\New folder\data\moss.tga
Format : TGA
Format version : Version 2
File size : 3.88 MiB

 

Image

Format : RLE
Format/Info : Run-length encoding
Codec ID : 10
Width : 1 024 pixels
Height : 1 024 pixels
Color space : RGB
Bit depth : 32 bits

 

 

 

General

Complete name : R:\GAMES\RepackGames.Net – Conquest of Elysium 4\Conquest of Elysium 4\New folder\data\mouse.trs
File size : 1.03 KiB

 

 

 

General

Complete name : R:\GAMES\RepackGames.Net – Conquest of Elysium 4\Conquest of Elysium 4\New folder\data\move.smp
File size : 784 Bytes

 

 

 

General

Complete name : R:\GAMES\RepackGames.Net – Conquest of Elysium 4\Conquest of Elysium 4\New folder\data\muffled.smp
File size : 2.35 KiB

 

 

 

General

Complete name : R:\GAMES\RepackGames.Net – Conquest of Elysium 4\Conquest of Elysium 4\New folder\data\muller.smp
File size : 30.4 KiB

 

 

 

General

Complete name : R:\GAMES\RepackGames.Net – Conquest of Elysium 4\Conquest of Elysium 4\New folder\data\mutter.smp
File size : 18.3 KiB

 

 

 

General

Complete name : R:\GAMES\RepackGames.Net – Conquest of Elysium 4\Conquest of Elysium 4\New folder\data\m_death.sw
File size : 38.8 KiB

 

 

 

General

Complete name : R:\GAMES\RepackGames.Net – Conquest of Elysium 4\Conquest of Elysium 4\New folder\data\m_death2.sw
File size : 21.5 KiB

 

 

 

General

Complete name : R:\GAMES\RepackGames.Net – Conquest of Elysium 4\Conquest of Elysium 4\New folder\data\orchhit.smp
File size : 11.8 KiB

 

 

 

General

Complete name : R:\GAMES\RepackGames.Net – Conquest of Elysium 4\Conquest of Elysium 4\New folder\data\pil.smp
File size : 7.50 KiB

 

 

 

General

Complete name : R:\GAMES\RepackGames.Net – Conquest of Elysium 4\Conquest of Elysium 4\New folder\data\quake.smp
File size : 47.3 KiB

 

 

 

General

Complete name : R:\GAMES\RepackGames.Net – Conquest of Elysium 4\Conquest of Elysium 4\New folder\data\rapid.smp
File size : 4.25 KiB

 

 

 

General

Complete name : R:\GAMES\RepackGames.Net – Conquest of Elysium 4\Conquest of Elysium 4\New folder\data\repulse.smp
File size : 2.35 KiB

 

 

 

General

Complete name : R:\GAMES\RepackGames.Net – Conquest of Elysium 4\Conquest of Elysium 4\New folder\data\res.trs
File size : 219 KiB

 

 

 

General

Complete name : R:\GAMES\RepackGames.Net – Conquest of Elysium 4\Conquest of Elysium 4\New folder\data\sag.smp
File size : 99.3 KiB

 

 

 

General

Complete name : R:\GAMES\RepackGames.Net – Conquest of Elysium 4\Conquest of Elysium 4\New folder\data\sea.tga
Format : TGA
Format version : Version 1
File size : 3.02 KiB

 

Image

Format : Raw
Codec ID : 2
Width : 32 pixels
Height : 32 pixels
Color space : RGB
Bit depth : 24 bits

 

 

 

General

Complete name : R:\GAMES\RepackGames.Net – Conquest of Elysium 4\Conquest of Elysium 4\New folder\data\shatter.smp
File size : 8.50 KiB

 

 

 

General

Complete name : R:\GAMES\RepackGames.Net – Conquest of Elysium 4\Conquest of Elysium 4\New folder\data\shortsag.sw
File size : 167 KiB

 

 

 

General

Complete name : R:\GAMES\RepackGames.Net – Conquest of Elysium 4\Conquest of Elysium 4\New folder\data\shortsizz.sw
File size : 17.8 KiB

 

 

 

General

Complete name : R:\GAMES\RepackGames.Net – Conquest of Elysium 4\Conquest of Elysium 4\New folder\data\sizzle.sw
File size : 52.6 KiB

 

 

 

General

Complete name : R:\GAMES\RepackGames.Net – Conquest of Elysium 4\Conquest of Elysium 4\New folder\data\skeleton.smp
File size : 6.23 KiB

 

 

 

General

Complete name : R:\GAMES\RepackGames.Net – Conquest of Elysium 4\Conquest of Elysium 4\New folder\data\sling.smp
File size : 332 Bytes

 

 

 

General

Complete name : R:\GAMES\RepackGames.Net – Conquest of Elysium 4\Conquest of Elysium 4\New folder\data\sling.sw
File size : 24.3 KiB

 

 

 

General

Complete name : R:\GAMES\RepackGames.Net – Conquest of Elysium 4\Conquest of Elysium 4\New folder\data\smallfire.smp
File size : 33.4 KiB

 

 

 

General

Complete name : R:\GAMES\RepackGames.Net – Conquest of Elysium 4\Conquest of Elysium 4\New folder\data\smallfont.trs
File size : 825 KiB

 

 

 

General

Complete name : R:\GAMES\RepackGames.Net – Conquest of Elysium 4\Conquest of Elysium 4\New folder\data\smallsnow.sw
File size : 76.1 KiB

 

 

 

General

Complete name : R:\GAMES\RepackGames.Net – Conquest of Elysium 4\Conquest of Elysium 4\New folder\data\smoke_white.tga
Format : TGA
Format version : Version 2
File size : 194 KiB

 

Image

Format : RLE
Format/Info : Run-length encoding
Codec ID : 10
Width : 256 pixels
Height : 256 pixels
Color space : RGB
Bit depth : 32 bits

 

 

 

General

Complete name : R:\GAMES\RepackGames.Net – Conquest of Elysium 4\Conquest of Elysium 4\New folder\data\snake.sw
File size : 72.4 KiB

 

 

 

General

Complete name : R:\GAMES\RepackGames.Net – Conquest of Elysium 4\Conquest of Elysium 4\New folder\data\snow.sw
File size : 76.1 KiB

 

 

 

General

Complete name : R:\GAMES\RepackGames.Net – Conquest of Elysium 4\Conquest of Elysium 4\New folder\data\spear.smp
File size : 2.83 KiB

 

 

 

General

Complete name : R:\GAMES\RepackGames.Net – Conquest of Elysium 4\Conquest of Elysium 4\New folder\data\springgun.sw
File size : 20.0 KiB

 

 

 

General

Complete name : R:\GAMES\RepackGames.Net – Conquest of Elysium 4\Conquest of Elysium 4\New folder\data\springit.smp
File size : 3.40 KiB

 

 

 

General

Complete name : R:\GAMES\RepackGames.Net – Conquest of Elysium 4\Conquest of Elysium 4\New folder\data\stab.smp
File size : 3.29 KiB

 

 

 

General

Complete name : R:\GAMES\RepackGames.Net – Conquest of Elysium 4\Conquest of Elysium 4\New folder\data\swish.smp
File size : 7.36 KiB

 

 

 

General

Complete name : R:\GAMES\RepackGames.Net – Conquest of Elysium 4\Conquest of Elysium 4\New folder\data\sword.smp
File size : 2.71 KiB

 

 

 

General

Complete name : R:\GAMES\RepackGames.Net – Conquest of Elysium 4\Conquest of Elysium 4\New folder\data\sword.wav
Format : Wave
File size : 15.8 KiB
Duration : 365ms
Overall bit rate mode : Constant
Overall bit rate : 354 Kbps

 

Audio

Format : PCM
Format settings, Endianness : Little
Format settings, Sign : Signed
Codec ID : 1
Duration : 365ms
Bit rate mode : Constant
Bit rate : 352.8 Kbps
Channel(s) : 1 channel
Sampling rate : 22.05 KHz
Bit depth : 16 bits
Stream size : 15.8 KiB (100%)

 

 

 

General

Complete name : R:\GAMES\RepackGames.Net – Conquest of Elysium 4\Conquest of Elysium 4\New folder\data\swosh.smp
File size : 784 Bytes

 

 

 

General

Complete name : R:\GAMES\RepackGames.Net – Conquest of Elysium 4\Conquest of Elysium 4\New folder\data\swosh2.sw
File size : 11.3 KiB

 

 

 

General

Complete name : R:\GAMES\RepackGames.Net – Conquest of Elysium 4\Conquest of Elysium 4\New folder\data\tap.smp
File size : 684 Bytes

 

 

 

General

Complete name : R:\GAMES\RepackGames.Net – Conquest of Elysium 4\Conquest of Elysium 4\New folder\data\temple.tga
Format : TGA
Format version : Version 1
File size : 12.0 KiB

 

Image

Format : Raw
Codec ID : 2
Width : 64 pixels
Height : 64 pixels
Color space : RGB
Bit depth : 24 bits

 

 

 

General

Complete name : R:\GAMES\RepackGames.Net – Conquest of Elysium 4\Conquest of Elysium 4\New folder\data\terrain.trs
File size : 3.95 MiB

 

 

 

General

Complete name : R:\GAMES\RepackGames.Net – Conquest of Elysium 4\Conquest of Elysium 4\New folder\data\thunder.smp
File size : 38.8 KiB

 

 

 

General

Complete name : R:\GAMES\RepackGames.Net – Conquest of Elysium 4\Conquest of Elysium 4\New folder\data\tortyr.smp
File size : 11.9 KiB

 

 

 

General

Complete name : R:\GAMES\RepackGames.Net – Conquest of Elysium 4\Conquest of Elysium 4\New folder\data\tree.trs
File size : 148 KiB

 

 

 

General

Complete name : R:\GAMES\RepackGames.Net – Conquest of Elysium 4\Conquest of Elysium 4\New folder\data\trump.smp
File size : 9.98 KiB

 

 

 

General

Complete name : R:\GAMES\RepackGames.Net – Conquest of Elysium 4\Conquest of Elysium 4\New folder\data\trumpet.sw
File size : 295 KiB

 

 

 

General

Complete name : R:\GAMES\RepackGames.Net – Conquest of Elysium 4\Conquest of Elysium 4\New folder\data\vasande.smp
File size : 7.52 KiB

 

 

 

General

Complete name : R:\GAMES\RepackGames.Net – Conquest of Elysium 4\Conquest of Elysium 4\New folder\data\vbar.tga
Format : TGA
Format version : Version 2
File size : 174 KiB

 

Image

Format : RLE
Format/Info : Run-length encoding
Codec ID : 10
Width : 128 pixels
Height : 512 pixels
Color space : RGB
Bit depth : 32 bits

 

 

 

General

Complete name : R:\GAMES\RepackGames.Net – Conquest of Elysium 4\Conquest of Elysium 4\New folder\data\walls.trs
File size : 232 KiB

 

 

 

General

Complete name : R:\GAMES\RepackGames.Net – Conquest of Elysium 4\Conquest of Elysium 4\New folder\data\water.tga
Format : TGA
Format version : Version 2
File size : 46.9 KiB

 

Image

Format : RLE
Format/Info : Run-length encoding
Codec ID : 10
Width : 128 pixels
Height : 128 pixels
Color space : RGB
Bit depth : 24 bits

 

 

 

General

Complete name : R:\GAMES\RepackGames.Net – Conquest of Elysium 4\Conquest of Elysium 4\New folder\data\water1.wav
Format : Wave
File size : 88.9 KiB
Duration : 2s 63ms
Overall bit rate mode : Constant
Overall bit rate : 353 Kbps

 

Audio

Format : PCM
Format settings, Endianness : Little
Format settings, Sign : Signed
Codec ID : 1
Duration : 2s 63ms
Bit rate mode : Constant
Bit rate : 352.8 Kbps
Channel(s) : 1 channel
Sampling rate : 22.05 KHz
Bit depth : 16 bits
Stream size : 88.9 KiB (100%)

 

 

 

General

Complete name : R:\GAMES\RepackGames.Net – Conquest of Elysium 4\Conquest of Elysium 4\New folder\data\water2.wav
Format : Wave
File size : 150 KiB
Duration : 3s 474ms
Overall bit rate mode : Constant
Overall bit rate : 353 Kbps

 

Audio

Format : PCM
Format settings, Endianness : Little
Format settings, Sign : Signed
Codec ID : 1
Duration : 3s 474ms
Bit rate mode : Constant
Bit rate : 352.8 Kbps
Channel(s) : 1 channel
Sampling rate : 22.05 KHz
Bit depth : 16 bits
Stream size : 150 KiB (100%)

 

 

 

General

Complete name : R:\GAMES\RepackGames.Net – Conquest of Elysium 4\Conquest of Elysium 4\New folder\data\whip.smp
File size : 10.5 KiB

 

 

 

General

Complete name : R:\GAMES\RepackGames.Net – Conquest of Elysium 4\Conquest of Elysium 4\New folder\data\whip.sw
File size : 15.7 KiB

 

 

 

General

Complete name : R:\GAMES\RepackGames.Net – Conquest of Elysium 4\Conquest of Elysium 4\New folder\data\whip2.sw
File size : 19.7 KiB

 

 

 

General

Complete name : R:\GAMES\RepackGames.Net – Conquest of Elysium 4\Conquest of Elysium 4\New folder\data\wind.sw
File size : 59.5 KiB

 

 

 

General

Complete name : R:\GAMES\RepackGames.Net – Conquest of Elysium 4\Conquest of Elysium 4\New folder\data\wind2.smp
File size : 74.4 KiB

 

 

 

General

Complete name : R:\GAMES\RepackGames.Net – Conquest of Elysium 4\Conquest of Elysium 4\New folder\data\windshort.wav
Format : Wave
File size : 10.8 KiB
Duration : 690ms
Overall bit rate mode : Constant
Overall bit rate : 129 Kbps

 

Audio

Format : PCM
Format settings, Endianness : Little
Format settings, Sign : Signed
Codec ID : 1
Duration : 690ms
Bit rate mode : Constant
Bit rate : 128 Kbps
Channel(s) : 1 channel
Sampling rate : 8 000 Hz
Bit depth : 16 bits
Stream size : 10.8 KiB (100%)

 

 

 

General

Complete name : R:\GAMES\RepackGames.Net – Conquest of Elysium 4\Conquest of Elysium 4\New folder\data\windshort2.sw
File size : 11.0 KiB

 

 

 

General

Complete name : R:\GAMES\RepackGames.Net – Conquest of Elysium 4\Conquest of Elysium 4\New folder\coe4.exe
Format : MZ
Format profile : Executable / Intel i386
File size : 17.3 MiB
Encoded date : UTC 2015-11-16 10:13:34

 

 

 

General

Complete name : R:\GAMES\RepackGames.Net – Conquest of Elysium 4\Conquest of Elysium 4\New folder\coe4.sh
File size : 386 Bytes

 

 

 

General

Complete name : R:\GAMES\RepackGames.Net – Conquest of Elysium 4\Conquest of Elysium 4\New folder\coe4_amd64
Format : ELF
Format profile : Executable / AMD x86-64
File size : 17.5 MiB

 

 

 

General

Complete name : R:\GAMES\RepackGames.Net – Conquest of Elysium 4\Conquest of Elysium 4\New folder\coe4_x86
Format : ELF
Format profile : Executable / Intel i386
File size : 17.1 MiB

 

 

 

General

Complete name : R:\GAMES\RepackGames.Net – Conquest of Elysium 4\Conquest of Elysium 4\New folder\installscript_linux.vdf
File size : 205 Bytes

 

 

 

General

Complete name : R:\GAMES\RepackGames.Net – Conquest of Elysium 4\Conquest of Elysium 4\New folder\installscript_osx.vdf
File size : 519 Bytes

 

 

Conquest of Elysium 4 Small Size

——————————————————————————-
Post Information
——————————————————————————-
Posted by…………: RepackGames.Net
Fills Policy………: Ask for them nicely
Repost Policy……..: 5 days after original post

——————————————————————————-

Conquest of Elysium 4 PC Game Cracked

——————————————————————————-
Release Notes
——————————————————————————-

Visit www.RepackGames.Net to get latest repack (highly compressed) PC games for free.

——————————————————————————-

Conquest of Elysium 4 Repack Free Download

Here are quick steps how to installing Conquest of Elysium 4 Repack PC Game, make sure you follow the steps that we have given below correctly.

How to Install
  1. Unrar with latest winRAR version.
  2. Run “setup.exe”.
  3. Run the game from shortcut in “start” menu or dekstop shortcut.
  4. Support the software developers. If you like this game, please buy it! Thank you very much.

Note
  1. Block the game’s exe in your firewall to prevent the game from trying to go online.
  2. If you install games to your systemdrive, it may be necessary to run this game with admin privileges instead.

Conquest of Elysium 4 Repack Free Download

Download Conquest of Elysium 4 Repack from this website. RepackGames.Net offering this latest repack game for free. Get working repack game without bugs and error. We had posted direct download links to download this game for PC (Personal Computer) without cost (100% free). The latest and updated game by the publishers are given here. Download Conquest of Elysium 4 Repack in highly compressed form without viruses. This game have been repacked by trusted group. Download complete game (include crack, update, hotfix, etc) from here. RepackGames.Net also provides crack-patch of this game. In this post, we also insert the trailer of the game, so before downloading this game please take your time first to watch the trailer that already we served, click on Trailer tab above. Please install it using recommended settings. Enjoy playing this amazing game for free on your PC. Share with friends. Thanks for having look over our work! Please note that this game is hosted on a third-party file sharing website, and it is not affiliated with RepackGames.Net.