Battle Academy Repack Free Download

214 views

Battle Academy Repack Free Download

Battle Academy Repack Free Download

AboutFeaturesScreenshotsTrailerSystem Requirements.NFO

Basic Information

Battle Academy Repack Free Download PC Game setup for Windows operating system (OS). Battle Academy Repack is a Strategy game. Battle Academy Repack is a PC game that developed and published by Slitherine Ltd.. Battle Academy Repack game was released on 4 August, 2010. The size of this game is 376 MB. It was released for all platforms, but we are only offering this game to play only on PC/Windows. It supports single and multi player mode.

Description

The hit turn-based strategy game has landed on Steam! #1 strategy game in the app store in 46 countries.
Approachable, absorbing, detailed and yet visually impressive, Battle Academy aims to revolutionize the strategy games market with a blend of intuitive design and compelling gameplay. This quick-paced easy-to-learn strategy title boasts an impressive number of unit types and different missions and delivers endless replay value because of cleverly designed online multiplayer system, built in scenario editor and a host of user mods and scenarios.

Battle Academy is an action-packed tactical strategy game where you have to take command of a select group of units and lead them through battles on the many different fronts of World War II. As a commander, you will have to employ real world combined-arms tactics in order to secure victory. This means you will have to lay ambushes to surprise opposing forces, use suppressing fire to pin them, flank hostile armor for maximum effect and, if necessary, assaults the enemy to clear strong points. In some cases you will also have access to powerful off map artillery and air support with the capacity to weaken the enemy defenses or even stop an enemy attack dead in its tracks. At the same time you will have to play close attention to the morale of your own troops and use recon units to spot any hostile ambushes or flanking attacks.

To achieve this, Battle Academy offers a clean and intuitive interface that makes it easy to control your troops and at the same time makes sure you will never lose sight of the battle. This means that you will be focused on what really matters; your mission objectives, battle tactics and unit positioning.

The game engine is also completely script-driven and therefore easy to mod, allowing players to create their own missions and scenario and even complete game overhauls in a simple and effective way.

Game Features:
  • Control British, US, Polish, Canadian forces in 3 epic campaigns covering more than 30 varied battles or take control of Italian and German forces in multiplayer.
  • Select from a vast array of equipment including 100 units from 6 nations – Shermans,
  • Fireflys, Panthers, Tigers, Stukas, Hurricanes, P47s and much more!
  • Gameplay features include ambushes, line of sight, artillery barrages, airstrikes, scouts, morale, APCs, flame throwers, heavy bombers, snipers and suppression.
  • Your units gain experience as they fight. Get promoted to Veteran and Elite status and gain new skills.
  • Addictive multiplayer modes using Slitherines revolutionary multiplayer server.
  • Huge modding opportunities. The game has been designed so that its easily moddable and accessible scripts control all aspects of combat, user interface and the game’s appearance.

Repack Features:
  • Based on PROPHET ISO release (400MB)
  • MD5 Perfect: all files are identical to originals after installation.
  • Update to latest version.
  • NOTHING ripped, NOTHING re-encoded, pure only repack.
  • Smaller archive size (400 MB to 376 MB).
  • Installation takes 3-4 minutes (depending on your PC performance).
  • Work perfectly.
  • Repack by RepackGames.Net.

Battle Academy Repack Free Download

Snapshot of Battle Academy Repack

Image of Battle Academy Repack

This game system requirements are described in the content below. With these specifications, the game will run smoothly and graphics would be crystal clear. A machine (CPU) better than these specifications is most beneficiary.

MINIMUM:
  • OS: Windows XP/Vista/7/8
  • Memory: 512 MB RAM
  • Graphics: 128 MB DirectX 9 Compatible Graphics Card
  • DirectX: Version 9.0
  • Hard Drive: 500 MB available space
  • Sound Card: DirectX Compatible Sound Card
  • Additional Notes: 1GB RAM for Vista or above

RECOMMENDED:

*******************************************************************************

Battle Academy Repack Free Download

Download Free Repack Games – RepackGames.Net

*******************************************************************************
Battle Academy Repack
*******************************************************************************

Battle Academy Repack Free Download

——————————————————————————-
General Information
——————————————————————————-

 

 

General

Complete name : A:\James Hawk\Games\RepackGames.Net – Battle Academy\Battle Academy\New folder\D3DX9_36.DLL
Format : MZ
Format profile : DLL / Intel i386
File size : 3.56 MiB
Encoded date : UTC 2007-10-11 00:26:24

 

 

 

General

Complete name : A:\James Hawk\Games\RepackGames.Net – Battle Academy\Battle Academy\New folder\DBGHELP.DLL
Format : MZ
Format profile : DLL / Intel i386
File size : 1.03 MiB
Encoded date : UTC 2009-02-26 01:55:30

 

 

 

General

Complete name : A:\James Hawk\Games\RepackGames.Net – Battle Academy\Battle Academy\New folder\dxwebsetup.exe
Format : MZ
Format profile : Executable / Intel i386
File size : 285 KiB
Encoded date : UTC 2001-08-18 01:42:57

 

 

 

General

Complete name : A:\James Hawk\Games\RepackGames.Net – Battle Academy\Battle Academy\New folder\error.log
File size : 724 Bytes

 

 

 

General

Complete name : A:\James Hawk\Games\RepackGames.Net – Battle Academy\Battle Academy\New folder\icon.ico
Format : ICO
File size : 16.6 KiB

 

Image #1

Width : 64 pixels
Height : 64 pixels
Bit depth : bit0
Stream size : 12.5 KiB (76%)

 

Image #2

Width : 32 pixels
Height : 32 pixels
Bit depth : bit0
Stream size : 3.16 KiB (19%)

 

Image #3

Width : 16 pixels
Height : 16 pixels
Bit depth : bit0
Stream size : 872 Bytes (5%)

 

 

 

General

Complete name : A:\James Hawk\Games\RepackGames.Net – Battle Academy\Battle Academy\New folder\MSS32.DLL
Format : MZ
Format profile : DLL / Intel i386
File size : 358 KiB
Encoded date : UTC 2010-07-09 06:58:29

 

 

 

General

Complete name : A:\James Hawk\Games\RepackGames.Net – Battle Academy\Battle Academy\New folder\MSVCP71.DLL
Format : MZ
Format profile : DLL / Intel i386
File size : 488 KiB
Encoded date : UTC 2003-03-19 04:14:51

 

 

 

General

Complete name : A:\James Hawk\Games\RepackGames.Net – Battle Academy\Battle Academy\New folder\MSVCP90.DLL
Format : MZ
Format profile : DLL / Intel i386
File size : 556 KiB
Encoded date : UTC 2007-11-07 04:23:48

 

 

 

General

Complete name : A:\James Hawk\Games\RepackGames.Net – Battle Academy\Battle Academy\New folder\MSVCR71.DLL
Format : MZ
Format profile : DLL / Intel i386
File size : 340 KiB
Encoded date : UTC 2003-02-21 12:42:20

 

 

 

General

Complete name : A:\James Hawk\Games\RepackGames.Net – Battle Academy\Battle Academy\New folder\MSVCR90.DLL
Format : MZ
Format profile : DLL / Intel i386
File size : 641 KiB
Encoded date : UTC 2007-11-07 04:23:42

 

 

 

General

Complete name : A:\James Hawk\Games\RepackGames.Net – Battle Academy\Battle Academy\New folder\PATCHNOTES.RTF
File size : 94.0 KiB

 

 

 

General

Complete name : A:\James Hawk\Games\RepackGames.Net – Battle Academy\Battle Academy\New folder\SLITHERINE.ICO
Format : ICO
File size : 3.19 KiB

 

Image

Width : 32 pixels
Height : 32 pixels
Bit depth : bit0
Stream size : 3.16 KiB (99%)

 

 

 

General

Complete name : A:\James Hawk\Games\RepackGames.Net – Battle Academy\Battle Academy\New folder\STEAM_API.DLL
Format : MZ
Format profile : DLL / Intel i386
File size : 1.28 MiB
Encoded date : UTC 2015-06-01 15:56:12

 

 

 

General

Complete name : A:\James Hawk\Games\RepackGames.Net – Battle Academy\Battle Academy\New folder\steam_api.ini
File size : 2.36 KiB

 

 

 

General

Complete name : A:\James Hawk\Games\RepackGames.Net – Battle Academy\Battle Academy\New folder\unins000.dat
File size : 1.25 MiB

 

 

 

General

Complete name : A:\James Hawk\Games\RepackGames.Net – Battle Academy\Battle Academy\New folder\unins000.exe
Format : MZ
Format profile : Executable / Intel i386
File size : 1.14 MiB
Encoded date : UTC 2014-07-09 07:58:14

 

 

 

General

Complete name : A:\James Hawk\Games\RepackGames.Net – Battle Academy\Battle Academy\New folder\VERSIONTAG.TXT
File size : 6.00 Bytes

 

 

 

General

Complete name : A:\James Hawk\Games\RepackGames.Net – Battle Academy\Battle Academy\New folder\WATER256.DDS
Format : DDS
Format/Info : DirectDraw Surface
File size : 1.13 MiB

 

Image

Width : 256 pixels
Height : 256 pixels
Stream size : 1.13 MiB (100%)

 

 

 

General

Complete name : A:\James Hawk\Games\RepackGames.Net – Battle Academy\Battle Academy\New folder\XINPUT1_3.DLL
Format : MZ
Format profile : DLL / Intel i386
File size : 79.9 KiB
Encoded date : UTC 2007-04-05 01:39:01

 

 

 

General

Complete name : A:\James Hawk\Games\RepackGames.Net – Battle Academy\Battle Academy\New folder\BA.ICO
Format : ICO
File size : 16.6 KiB

 

Image #1

Width : 64 pixels
Height : 64 pixels
Bit depth : bit0
Stream size : 12.5 KiB (76%)

 

Image #2

Width : 32 pixels
Height : 32 pixels
Bit depth : bit0
Stream size : 3.16 KiB (19%)

 

Image #3

Width : 16 pixels
Height : 16 pixels
Bit depth : bit0
Stream size : 872 Bytes (5%)

 

 

 

General

Complete name : A:\James Hawk\Games\RepackGames.Net – Battle Academy\Battle Academy\New folder\BA_PC_USERMANUAL.PDF
Format : PDF
Format version : 1.5
File size : 401 KiB

 

Text

Format : PDF

 

 

 

General

Complete name : A:\James Hawk\Games\RepackGames.Net – Battle Academy\Battle Academy\New folder\BA_STEAM.exe
Format : MZ
Format profile : Executable / Intel i386
File size : 1.82 MiB
Encoded date : UTC 2014-04-15 16:05:28

 

 

 

General

Complete name : A:\James Hawk\Games\RepackGames.Net – Battle Academy\Battle Academy\New folder\BA_STEAM_FULL_2.6.0v3.exe
Format : MZ
Format profile : Executable / Intel i386
File size : 1.82 MiB
Encoded date : UTC 2014-04-25 16:54:46

 

 

 

General

Complete name : A:\James Hawk\Games\RepackGames.Net – Battle Academy\Battle Academy\New folder\BAMODDINGPORTAL.URL
File size : 132 Bytes

 

 

 

General

Complete name : A:\James Hawk\Games\RepackGames.Net – Battle Academy\Battle Academy\New folder\D3DX9_31.DLL
Format : MZ
Format profile : DLL / Intel i386
File size : 2.30 MiB
Encoded date : UTC 2006-09-28 22:13:05

 

 

Battle Academy Repack Free Download

——————————————————————————-
Post Information
——————————————————————————-
Posted by…………: RepackGames.Net
Fills Policy………: Ask for them nicely
Repost Policy……..: 5 days after original post

——————————————————————————-

Battle Academy Repack Free Download

——————————————————————————-
Release Notes
——————————————————————————-

Visit www.RepackGames.Net to get latest repack (highly compressed) PC games for free.

——————————————————————————-

Battle Academy Repack Free Download

Here are quick steps how to installing Battle Academy Repack PC Game, make sure you follow the steps that we have given below correctly.

How to Install
  1. Unrar with latest winRAR version.
  2. Run “setup.exe”.
  3. Start the game from your dekstop.
  4. Support the software developers. If you like this game, please buy it! Thank you very much.

Note
  1. Block the game’s exe in your firewall to prevent the game from trying to go online.
  2. If you install games to your systemdrive, it may be necessary to run this game with admin privileges instead.

Battle Academy Repack Free Download

Download Battle Academy Repack from this website. RepackGames.Net offering this latest repack game for free. Get working repack game without bugs and error. We had posted direct download links to download this game for PC (Personal Computer) without cost (100% free). The latest and updated game by the publishers are given here. Download Battle Academy Repack in highly compressed form without viruses. This game have been repacked by trusted group. Download complete game (include crack, update, hotfix, etc) from here. RepackGames.Net also provides crack-patch of this game. In this post, we also insert the trailer of the game, so before downloading this game please take your time first to watch the trailer that already we served, click on Trailer tab above. Please install it using recommended settings. Enjoy playing this amazing game for free on your PC. Share with friends. Thanks for having look over our work! Please note that this game is hosted on a third-party file sharing website, and it is not affiliated with RepackGames.Net.

Tags: #Battle Academy Highly Compressed #Battle Academy PC Game Repack Free Download #Battle Academy Repack #Battle Academy Repack Crack #Battle Academy Repack Download #Battle Academy Repack Free #Battle Academy Repack Free Download #Battle Academy Repack Full Version #PROPHET